Gorillaz – Demon Days (Japanese Edition)




No Cover available

Artist: Gorillaz
Year: 2005
Genre: Rock
Notes: Discogs
Add. Notes: Japanese Edition
Watch Songs on: YouTube
Cover incl.: Yes
Encoder: FLAC
Bitrate: ~800 kBit/s (44.1 kHz/16 Bit/s)
Log & Cue incl.: Yes
Size: 351,4 MB
Password: “slam” (without ” “)


All Downloads/Hosters are compatible

Download 1
KatFile.com
Turbobit.net
FileFactory.com
Rapidgator.net
Download 2
KatFile.com
Turbobit.net
FileFactory.com
Rapidgator.net

Tracklist:

1 - Intro - 1:05
2 - Last Living Souls - 3:10
3 - Kids With Guns - 3:45
4 - O Green World - 4:30
5 - Dirty Harry - 3:45
6 - Feel Good Inc - 3:40
7 - El Manana - 3:50
8 - Every Planet We Reach Is Dead - 4:55
9 - November Has Come - 2:40
10 - All Alone - 3:30
11 - White Light - 2:10
12 - Dare - 4:05
13 - Fire Coming Out Of The Monkey's Head - 3:15
14 - Don't Get Lost In Heaven - 2:00
15 - Demon Days - 4:30
16 - People - 3:25

EAC-Log, CUE-Sheed & NFO:

Click to open spoiler
Exact Audio Copy V0.99 prebeta 5 from 4. May 2009

EAC extraction logfile from 26. November 2009, 22:48

Gorillaz / Demon Days

Used drive : ASUS DRW-2014L1T Adapter: 3 ID: 0

Read mode : Secure
Utilize accurate stream : Yes
Defeat audio cache : Yes
Make use of C2 pointers : No

Read offset correction : 6
Overread into Lead-In and Lead-Out : No
Fill up missing offset samples with silence : Yes
Delete leading and trailing silent blocks : No
Null samples used in CRC calculations : Yes
Used interface : Native Win32 interface for Win NT & 2000
Gap handling : Appended to previous track

Used output format : User Defined Encoder
Selected bitrate : 768 kBit/s
Quality : High
Add ID3 tag : No
Command line compressor : C:\Program Files (x86)\Exact Audio Copy\FLAC\FLAC.EXE
Additional command line options : -6 -V -T “ARTIST=%a” -T “TITLE=%t” -T “ALBUM=%g” -T “DATE=%y” -T “TRACKNUMBER=%n” -T “GENRE=%m” -T “COMMENT=%e” %s -o %d

TOC of the extracted CD

Track | Start | Length | Start sector | End sector
———————————————————
1 | 0:00.00 | 1:03.12 | 0 | 4736
2 | 1:03.12 | 3:10.30 | 4737 | 19016
3 | 4:13.42 | 3:45.63 | 19017 | 35954
4 | 7:59.30 | 4:31.72 | 35955 | 56351
5 | 12:31.27 | 3:43.60 | 56352 | 73136
6 | 16:15.12 | 3:41.13 | 73137 | 89724
7 | 19:56.25 | 3:50.02 | 89725 | 106976
8 | 23:46.27 | 4:53.20 | 106977 | 128971
9 | 28:39.47 | 2:41.08 | 128972 | 141054
10 | 31:20.55 | 3:30.05 | 141055 | 156809
11 | 34:50.60 | 2:08.32 | 156810 | 166441
12 | 36:59.17 | 4:04.23 | 166442 | 184764
13 | 41:03.40 | 3:16.32 | 184765 | 199496
14 | 44:19.72 | 2:00.28 | 199497 | 208524
15 | 46:20.25 | 4:29.60 | 208525 | 228759
16 | 50:50.10 | 4:46.21 | 228760 | 250230
17 | 58:08.31 | 15:49.44 | 261631 | 332849

Track 1

Filename C:\Users\Matt\Music\Gorillaz – Demon Days – 2005\01 Intro.wav

Pre-gap length 0:00:02.00

Peak level 70.4 %
Track quality 100.0 %
Test CRC 1B0B7F27
Copy CRC 1B0B7F27
Track not present in AccurateRip database
Copy OK

Track 2

Filename C:\Users\Matt\Music\Gorillaz – Demon Days – 2005\02 Last Living Souls.wav

Peak level 99.9 %
Track quality 100.0 %
Test CRC A1227549
Copy CRC A1227549
Track not present in AccurateRip database
Copy OK

Track 3

Filename C:\Users\Matt\Music\Gorillaz – Demon Days – 2005\03 Kids With Guns.wav

Peak level 100.0 %
Track quality 100.0 %
Test CRC E5024B3A
Copy CRC E5024B3A
Track not present in AccurateRip database
Copy OK

Track 4

Filename C:\Users\Matt\Music\Gorillaz – Demon Days – 2005\04 O Green World.wav

Peak level 100.0 %
Track quality 99.9 %
Test CRC 729F4FA9
Copy CRC 729F4FA9
Track not present in AccurateRip database
Copy OK

Track 5

Filename C:\Users\Matt\Music\Gorillaz – Demon Days – 2005\05 Dirty Harry.wav

Peak level 99.9 %
Track quality 99.9 %
Test CRC 04A4FFF8
Copy CRC 04A4FFF8
Track not present in AccurateRip database
Copy OK

Track 6

Filename C:\Users\Matt\Music\Gorillaz – Demon Days – 2005\06 Feel Good Inc..wav

Peak level 99.9 %
Track quality 99.9 %
Test CRC 63FF4C17
Copy CRC 63FF4C17
Track not present in AccurateRip database
Copy OK

Track 7

Filename C:\Users\Matt\Music\Gorillaz – Demon Days – 2005\07 El Manana.wav

Peak level 99.9 %
Track quality 100.0 %
Test CRC F7CBED64
Copy CRC F7CBED64
Track not present in AccurateRip database
Copy OK

Track 8

Filename C:\Users\Matt\Music\Gorillaz – Demon Days – 2005\08 Every Planet We Reach Is Dead.wav

Peak level 99.9 %
Track quality 100.0 %
Test CRC DB397937
Copy CRC DB397937
Track not present in AccurateRip database
Copy OK

Track 9

Filename C:\Users\Matt\Music\Gorillaz – Demon Days – 2005\09 November Has Come.wav

Peak level 99.9 %
Track quality 100.0 %
Test CRC F36A58E4
Copy CRC F36A58E4
Track not present in AccurateRip database
Copy OK

Track 10

Filename C:\Users\Matt\Music\Gorillaz – Demon Days – 2005\10 All Alone.wav

Peak level 99.9 %
Track quality 100.0 %
Test CRC 36C9C958
Copy CRC 36C9C958
Track not present in AccurateRip database
Copy OK

Track 11

Filename C:\Users\Matt\Music\Gorillaz – Demon Days – 2005\11 White Light.wav

Peak level 99.9 %
Track quality 100.0 %
Test CRC E430CFAD
Copy CRC E430CFAD
Track not present in AccurateRip database
Copy OK

Track 12

Filename C:\Users\Matt\Music\Gorillaz – Demon Days – 2005\12 Dare.wav

Peak level 99.9 %
Track quality 100.0 %
Test CRC 65DAA9B2
Copy CRC 65DAA9B2
Track not present in AccurateRip database
Copy OK

Track 13

Filename C:\Users\Matt\Music\Gorillaz – Demon Days – 2005\13 Fire Coming Out Of The Monkey’s Head.wav

Peak level 100.0 %
Track quality 100.0 %
Test CRC 04684F28
Copy CRC 04684F28
Track not present in AccurateRip database
Copy OK

Track 14

Filename C:\Users\Matt\Music\Gorillaz – Demon Days – 2005\14 Don’t Get Lost In Heaven.wav

Peak level 99.9 %
Track quality 100.0 %
Test CRC 94ECD6DE
Copy CRC 94ECD6DE
Track not present in AccurateRip database
Copy OK

Track 15

Filename C:\Users\Matt\Music\Gorillaz – Demon Days – 2005\15 Demon Days.wav

Peak level 99.9 %
Track quality 100.0 %
Test CRC 3F4171FB
Copy CRC 3F4171FB
Track not present in AccurateRip database
Copy OK

Track 16

Filename C:\Users\Matt\Music\Gorillaz – Demon Days – 2005\16 68 State.wav

Pre-gap length 0:00:01.18

Peak level 98.0 %
Track quality 99.9 %
Test CRC C2AB10AC
Copy CRC C2AB10AC
Track not present in AccurateRip database
Copy OK

None of the tracks are present in the AccurateRip database

No errors occurred

End of status report

REM DATE 2005
REM GENRE Rock
REM DISCID ED115611
REM COMMENT “ExactAudioCopy v0.99pb5”
PERFORMER “Gorillaz”
TITLE “Demon Days”
FILE “01 Intro.wav” WAVE
TRACK 01 AUDIO
PERFORMER “Gorillaz”
TITLE “Intro”
INDEX 01 00:00:00
FILE “02 Last Living Souls.wav” WAVE
TRACK 02 AUDIO
PERFORMER “Gorillaz”
TITLE “Last Living Souls”
INDEX 01 00:00:00
FILE “03 Kids With Guns.wav” WAVE
TRACK 03 AUDIO
PERFORMER “Gorillaz”
TITLE “Kids With Guns”
INDEX 01 00:00:00
FILE “04 O Green World.wav” WAVE
TRACK 04 AUDIO
PERFORMER “Gorillaz”
TITLE “O Green World”
INDEX 01 00:00:00
FILE “05 Dirty Harry.wav” WAVE
TRACK 05 AUDIO
PERFORMER “Gorillaz”
TITLE “Dirty Harry”
INDEX 01 00:00:00
FILE “06 Feel Good Inc..wav” WAVE
TRACK 06 AUDIO
PERFORMER “Gorillaz”
TITLE “Feel Good Inc.”
INDEX 01 00:00:00
FILE “07 El Manana.wav” WAVE
TRACK 07 AUDIO
PERFORMER “Gorillaz”
TITLE “El Manana”
INDEX 01 00:00:00
FILE “08 Every Planet We Reach Is Dead.wav” WAVE
TRACK 08 AUDIO
PERFORMER “Gorillaz”
TITLE “Every Planet We Reach Is Dead”
INDEX 01 00:00:00
FILE “09 November Has Come.wav” WAVE
TRACK 09 AUDIO
PERFORMER “Gorillaz”
TITLE “November Has Come”
INDEX 01 00:00:00
FILE “10 All Alone.wav” WAVE
TRACK 10 AUDIO
PERFORMER “Gorillaz”
TITLE “All Alone”
INDEX 01 00:00:00
FILE “11 White Light.wav” WAVE
TRACK 11 AUDIO
PERFORMER “Gorillaz”
TITLE “White Light”
INDEX 01 00:00:00
FILE “12 Dare.wav” WAVE
TRACK 12 AUDIO
PERFORMER “Gorillaz”
TITLE “Dare”
INDEX 01 00:00:00
FILE “13 Fire Coming Out Of The Monkey’s Head.wav” WAVE
TRACK 13 AUDIO
PERFORMER “Gorillaz”
TITLE “Fire Coming Out Of The Monkey’s Head”
INDEX 01 00:00:00
FILE “14 Don’t Get Lost In Heaven.wav” WAVE
TRACK 14 AUDIO
PERFORMER “Gorillaz”
TITLE “Don’t Get Lost In Heaven”
INDEX 01 00:00:00
FILE “15 Demon Days.wav” WAVE
TRACK 15 AUDIO
PERFORMER “Gorillaz”
TITLE “Demon Days”
INDEX 01 00:00:00
TRACK 16 AUDIO
PERFORMER “Gorillaz”
TITLE “68 State”
INDEX 00 04:28:46
FILE “16 68 State.wav” WAVE
INDEX 01 00:00:00


Leave a Reply

Your email address will not be published. Required fields are marked *

Enter the text from the image below
 

This site uses Akismet to reduce spam. Learn how your comment data is processed.