Gorillaz – D-Sides (Enhanced Japanese Edition)




Artist: Gorillaz
Year: 2007
Genre: Rock
Notes: Discogs
Add. Notes: Enhanced Japanese Edition
Cover incl.: Yes
Encoder: FLAC
Bitrate: ~800 kBit/s (44.1 kHz/16 Bit/s)
Log & Cue incl.: Yes
Size: 784,86 MB
Password: “slam” (without ” “)


All Downloads/Hosters are compatible

Download 1
Turbobit.net
Rapidgator.net
UploadEver.com
JustUpload.io
UsersDrive.com
Download 2
Turbobit.net
Rapidgator.net
UploadEver.com
JustUpload.io
UsersDrive.com
Download 3
Turbobit.net
Rapidgator.net
UploadEver.com
JustUpload.io
UsersDrive.com

Tracklist:

1-1 - 68 State - 4:45
1-2 - People - 3:26
1-3 - Hongkongaton - 3:31
1-4 - We Are Happy Landfill - 3:37
1-5 - Hong Kong - 7:13
1-6 - Highway (Under Construction) - 4:18
1-7 - Rockit - 3:31
1-8 - Bill Murray - 3:51
1-9 - The Swagga - 4:56
1-10 - Murdoc Is God - 2:25
1-11 - Spitting Out The Demons - 5:08
1-12 - Don't Get Lost In Heaven (Demo Original Version) - 
2:27
1-13 - Stop The Dams - 5:37
Bonus Tracks
1-14 - Samba At 13 - 6:22
1-15 - Film Trailer Music - 1:44

2-1 - Dare (DFA Remix) - 12:12
2-2 - Feel Good Inc. (Staton Warriors Remix) - 7:22
2-3 - Kids With Guns (Jamie T's Turns To Monsters Mix) - 
4:20
2-4 - Dare (Soulwax Remix) - 5:41
2-5 - Kids With Guns (Hot Chip Remix) - 7:07
2-6 - El Mañana (Metronomy Remix) - 5:43
2-7 - Dare (Junior Sanchez Remix) - 5:25
2-8 - Dirty Harry (Schtung Chinese New Year Remix) - 
3:51
2-9 - Kids With Guns (Quiet Village Remix) - 10:07

EAC-Log, CUE-Sheed & NFO:

Click to open spoiler
Exact Audio Copy V0.99 prebeta 5 from 4. May 2009

EAC extraction logfile from 20. August 2009, 20:38

Gorillaz / D-Sides (Japan Edition)

Used drive : Optiarc DVD RW AD-7200S Adapter: 0 ID: 0

Read mode : Secure
Utilize accurate stream : Yes
Defeat audio cache : Yes
Make use of C2 pointers : No

Read offset correction : 48
Overread into Lead-In and Lead-Out : No
Fill up missing offset samples with silence : Yes
Delete leading and trailing silent blocks : No
Null samples used in CRC calculations : Yes
Used interface : Native Win32 interface for Win NT & 2000
Gap handling : Appended to previous track

Used output format : User Defined Encoder
Selected bitrate : 320 kBit/s
Quality : High
Add ID3 tag : No
Command line compressor : C:\Program Files\Exact Audio Copy\Flac\flac.exe
Additional command line options : -6 -V -T “ARTIST=%a” -T “TITLE=%t” -T “ALBUM=%g” -T “DATE=%y” -T “TRACKNUMBER=%n” -T “GENRE=%m” -T “COMMENT=%e” %s -o %d

TOC of the extracted CD

Track | Start | Length | Start sector | End sector
———————————————————
1 | 0:00.00 | 4:48.00 | 0 | 21599
2 | 4:48.00 | 3:27.67 | 21600 | 37191
3 | 8:15.67 | 3:33.41 | 37192 | 53207
4 | 11:49.33 | 3:39.30 | 53208 | 69662
5 | 15:28.63 | 7:14.72 | 69663 | 102284
6 | 22:43.60 | 4:20.06 | 102285 | 121790
7 | 27:03.66 | 3:33.30 | 121791 | 137795
8 | 30:37.21 | 3:52.65 | 137796 | 155260
9 | 34:30.11 | 4:57.50 | 155261 | 177585
10 | 39:27.61 | 2:26.27 | 177586 | 188562
11 | 41:54.13 | 5:10.22 | 188563 | 211834
12 | 47:04.35 | 2:29.23 | 211835 | 223032
13 | 49:33.58 | 5:39.06 | 223033 | 248463
14 | 55:12.64 | 6:25.05 | 248464 | 277343
15 | 61:37.69 | 1:44.15 | 277344 | 285158

Track 1

Filename C:\Recovered Files\Audio\Gorillaz\Albums\2007 – D-Sides (Japan Edition) (TOCP-66746.47)\01 – 68 State.wav

Pre-gap length 0:00:02.00

Peak level 98.0 %
Track quality 100.0 %
Test CRC 16AD7A34
Copy CRC 16AD7A34
Track not present in AccurateRip database
Copy OK

Track 2

Filename C:\Recovered Files\Audio\Gorillaz\Albums\2007 – D-Sides (Japan Edition) (TOCP-66746.47)\02 – People.wav

Pre-gap length 0:00:01.17

Peak level 98.0 %
Track quality 99.9 %
Test CRC 7CFC61F2
Copy CRC 7CFC61F2
Track not present in AccurateRip database
Copy OK

Track 3

Filename C:\Recovered Files\Audio\Gorillaz\Albums\2007 – D-Sides (Japan Edition) (TOCP-66746.47)\03 – Hongkongaton.wav

Pre-gap length 0:00:01.14

Peak level 98.0 %
Track quality 100.0 %
Test CRC 3E40D873
Copy CRC 3E40D873
Track not present in AccurateRip database
Copy OK

Track 4

Filename C:\Recovered Files\Audio\Gorillaz\Albums\2007 – D-Sides (Japan Edition) (TOCP-66746.47)\04 – We Are Happy Landfill.wav

Pre-gap length 0:00:01.62

Peak level 98.0 %
Track quality 100.0 %
Test CRC D7E6418C
Copy CRC D7E6418C
Track not present in AccurateRip database
Copy OK

Track 5

Filename C:\Recovered Files\Audio\Gorillaz\Albums\2007 – D-Sides (Japan Edition) (TOCP-66746.47)\05 – Hong Kong.wav

Pre-gap length 0:00:01.61

Peak level 98.0 %
Track quality 100.0 %
Test CRC D173A8A4
Copy CRC D173A8A4
Track not present in AccurateRip database
Copy OK

Track 6

Filename C:\Recovered Files\Audio\Gorillaz\Albums\2007 – D-Sides (Japan Edition) (TOCP-66746.47)\06 – Highway (Under Construction).wav

Pre-gap length 0:00:01.22

Peak level 98.0 %
Track quality 100.0 %
Test CRC CBA4B832
Copy CRC CBA4B832
Track not present in AccurateRip database
Copy OK

Track 7

Filename C:\Recovered Files\Audio\Gorillaz\Albums\2007 – D-Sides (Japan Edition) (TOCP-66746.47)\07 – Rock It.wav

Pre-gap length 0:00:01.73

Peak level 98.0 %
Track quality 100.0 %
Test CRC 4003FD15
Copy CRC 4003FD15
Track not present in AccurateRip database
Copy OK

Track 8

Filename C:\Recovered Files\Audio\Gorillaz\Albums\2007 – D-Sides (Japan Edition) (TOCP-66746.47)\08 – Bill Murray.wav

Pre-gap length 0:00:01.30

Peak level 98.0 %
Track quality 100.0 %
Test CRC 7DC1FDB5
Copy CRC 7DC1FDB5
Track not present in AccurateRip database
Copy OK

Track 9

Filename C:\Recovered Files\Audio\Gorillaz\Albums\2007 – D-Sides (Japan Edition) (TOCP-66746.47)\09 – The Swagga.wav

Pre-gap length 0:00:01.33

Peak level 98.0 %
Track quality 100.0 %
Test CRC 8AFC74D5
Copy CRC 8AFC74D5
Track not present in AccurateRip database
Copy OK

Track 10

Filename C:\Recovered Files\Audio\Gorillaz\Albums\2007 – D-Sides (Japan Edition) (TOCP-66746.47)\10 – Murdoc Is God.wav

Pre-gap length 0:00:01.09

Peak level 98.0 %
Track quality 100.0 %
Test CRC 6A74B4F8
Copy CRC 6A74B4F8
Track not present in AccurateRip database
Copy OK

Track 11

Filename C:\Recovered Files\Audio\Gorillaz\Albums\2007 – D-Sides (Japan Edition) (TOCP-66746.47)\11 – Spitting Out The Demons.wav

Pre-gap length 0:00:01.01

Peak level 98.0 %
Track quality 100.0 %
Test CRC 8A7CA5DA
Copy CRC 8A7CA5DA
Track not present in AccurateRip database
Copy OK

Track 12

Filename C:\Recovered Files\Audio\Gorillaz\Albums\2007 – D-Sides (Japan Edition) (TOCP-66746.47)\12 – Don’t Get Lost In Heaven (Demo).wav

Pre-gap length 0:00:01.28

Peak level 98.0 %
Track quality 100.0 %
Test CRC 762C22BC
Copy CRC 762C22BC
Track not present in AccurateRip database
Copy OK

Track 13

Filename C:\Recovered Files\Audio\Gorillaz\Albums\2007 – D-Sides (Japan Edition) (TOCP-66746.47)\13 – Stop The Dams.wav

Pre-gap length 0:00:01.42

Peak level 98.0 %
Track quality 100.0 %
Test CRC 8F741DD5
Copy CRC 8F741DD5
Track not present in AccurateRip database
Copy OK

Track 14

Filename C:\Recovered Files\Audio\Gorillaz\Albums\2007 – D-Sides (Japan Edition) (TOCP-66746.47)\14 – Samba At 13.wav

Pre-gap length 0:00:01.54

Peak level 98.0 %
Track quality 100.0 %
Test CRC 13BB2933
Copy CRC 13BB2933
Track not present in AccurateRip database
Copy OK

Track 15

Filename C:\Recovered Files\Audio\Gorillaz\Albums\2007 – D-Sides (Japan Edition) (TOCP-66746.47)\15 – Film Trailer Music.wav

Pre-gap length 0:00:02.13

Peak level 98.0 %
Track quality 100.0 %
Test CRC 5C2098FC
Copy CRC 5C2098FC
Track not present in AccurateRip database
Copy OK

None of the tracks are present in the AccurateRip database

No errors occurred

End of status report

Exact Audio Copy V0.99 prebeta 5 from 4. May 2009

EAC extraction logfile from 20. August 2009, 22:00

Gorillaz / D-Sides (Japan Edition) (CD 2)

Used drive : Optiarc DVD RW AD-7200S Adapter: 0 ID: 0

Read mode : Secure
Utilize accurate stream : Yes
Defeat audio cache : Yes
Make use of C2 pointers : No

Read offset correction : 48
Overread into Lead-In and Lead-Out : No
Fill up missing offset samples with silence : Yes
Delete leading and trailing silent blocks : No
Null samples used in CRC calculations : Yes
Used interface : Native Win32 interface for Win NT & 2000
Gap handling : Appended to previous track

Used output format : User Defined Encoder
Selected bitrate : 320 kBit/s
Quality : High
Add ID3 tag : No
Command line compressor : C:\Program Files\Exact Audio Copy\Flac\flac.exe
Additional command line options : -6 -V -T “ARTIST=%a” -T “TITLE=%t” -T “ALBUM=%g” -T “DATE=%y” -T “TRACKNUMBER=%n” -T “GENRE=%m” -T “COMMENT=%e” %s -o %d

TOC of the extracted CD

Track | Start | Length | Start sector | End sector
———————————————————
1 | 0:00.00 | 12:14.70 | 0 | 55119
2 | 12:14.70 | 7:24.68 | 55120 | 88487
3 | 19:39.63 | 4:22.44 | 88488 | 108181
4 | 24:02.32 | 5:42.69 | 108182 | 133900
5 | 29:45.26 | 7:09.50 | 133901 | 166125
6 | 36:55.01 | 5:44.47 | 166126 | 191972
7 | 42:39.48 | 5:26.31 | 191973 | 216453
8 | 48:06.04 | 3:53.03 | 216454 | 233931
9 | 51:59.07 | 10:08.39 | 233932 | 279570

Track 1

Filename C:\Recovered Files\Audio\Gorillaz\Albums\2007 – D-Sides (Japan Edition) (TOCP-66746.47)\01 – Dare (DFA Remix).wav

Pre-gap length 0:00:02.00

Peak level 98.8 %
Track quality 100.0 %
Test CRC 1C7FD07D
Copy CRC 1C7FD07D
Track not present in AccurateRip database
Copy OK

Track 2

Filename C:\Recovered Files\Audio\Gorillaz\Albums\2007 – D-Sides (Japan Edition) (TOCP-66746.47)\02 – Feel Good Inc. (Stanton Warriors Remix).wav

Pre-gap length 0:00:01.56

Peak level 98.0 %
Track quality 100.0 %
Test CRC 900607AF
Copy CRC 900607AF
Track not present in AccurateRip database
Copy OK

Track 3

Filename C:\Recovered Files\Audio\Gorillaz\Albums\2007 – D-Sides (Japan Edition) (TOCP-66746.47)\03 – Kids With Guns (Jamie T’s Turn to Monsters Mix).wav

Pre-gap length 0:00:01.94

Peak level 99.8 %
Track quality 100.0 %
Test CRC 61393639
Copy CRC 61393639
Track not present in AccurateRip database
Copy OK

Track 4

Filename C:\Recovered Files\Audio\Gorillaz\Albums\2007 – D-Sides (Japan Edition) (TOCP-66746.47)\04 – Dare (Soulwax remix).wav

Pre-gap length 0:00:01.57

Peak level 98.0 %
Track quality 100.0 %
Test CRC 1B098EA7
Copy CRC 1B098EA7
Track not present in AccurateRip database
Copy OK

Track 5

Filename C:\Recovered Files\Audio\Gorillaz\Albums\2007 – D-Sides (Japan Edition) (TOCP-66746.47)\05 – Kids With Guns (Hot Chip Remix).wav

Pre-gap length 0:00:00.90

Peak level 98.0 %
Track quality 99.9 %
Test CRC 38CB1336
Copy CRC 38CB1336
Track not present in AccurateRip database
Copy OK

Track 6

Filename C:\Recovered Files\Audio\Gorillaz\Albums\2007 – D-Sides (Japan Edition) (TOCP-66746.47)\06 – El Manana (Metromony Remix).wav

Pre-gap length 0:00:01.68

Peak level 99.8 %
Track quality 100.0 %
Test CRC 3CA8CD2C
Copy CRC 3CA8CD2C
Track not present in AccurateRip database
Copy OK

Track 7

Filename C:\Recovered Files\Audio\Gorillaz\Albums\2007 – D-Sides (Japan Edition) (TOCP-66746.47)\07 – Dare (Junior Sanchez Remix).wav

Pre-gap length 0:00:01.30

Peak level 98.0 %
Track quality 99.9 %
Test CRC 433F03D7
Copy CRC 433F03D7
Track not present in AccurateRip database
Copy OK

Track 8

Filename C:\Recovered Files\Audio\Gorillaz\Albums\2007 – D-Sides (Japan Edition) (TOCP-66746.47)\08 – Dirty Harry (Schtung Chinese New Year Remix).wav

Pre-gap length 0:00:01.00

Peak level 98.0 %
Track quality 100.0 %
Test CRC 4C2BB1BE
Copy CRC 4C2BB1BE
Track not present in AccurateRip database
Copy OK

Track 9

Filename C:\Recovered Files\Audio\Gorillaz\Albums\2007 – D-Sides (Japan Edition) (TOCP-66746.47)\09 – Kids With Guns (Quiet Village Remix).wav

Pre-gap length 0:00:01.86

Peak level 98.0 %
Track quality 100.0 %
Test CRC A0A93C49
Copy CRC A0A93C49
Track not present in AccurateRip database
Copy OK

None of the tracks are present in the AccurateRip database

No errors occurred

End of status report

REM GENRE Hip-Hop
REM DATE 2007
REM DISCID E40EDA0F
REM COMMENT “ExactAudioCopy v0.99pb5”
PERFORMER “Gorillaz”
TITLE “Gorillaz D-Sides (Japan Edition)”
FILE “1.01 – 68 State.wav” WAVE
TRACK 01 AUDIO
TITLE “68 State”
PERFORMER “Gorillaz”
INDEX 01 00:00:00
TRACK 02 AUDIO
TITLE “People”
PERFORMER “Gorillaz”
INDEX 00 04:46:62
FILE “1.02 – People.wav” WAVE
INDEX 01 00:00:00
TRACK 03 AUDIO
TITLE “Hongkongaton”
PERFORMER “Gorillaz”
INDEX 00 03:26:56
FILE “1.03 – Hongkongaton.wav” WAVE
INDEX 01 00:00:00
TRACK 04 AUDIO
TITLE “We Are Happy Landfill”
PERFORMER “Gorillaz”
INDEX 00 03:31:69
FILE “1.04 – We Are Happy Landfill.wav” WAVE
INDEX 01 00:00:00
TRACK 05 AUDIO
TITLE “Hong Kong”
PERFORMER “Gorillaz”
INDEX 00 03:37:59
FILE “1.05 – Hong Kong.wav” WAVE
INDEX 01 00:00:00
TRACK 06 AUDIO
TITLE “Highway (Under Construction)”
PERFORMER “Gorillaz”
INDEX 00 07:13:55
FILE “1.06 – Highway (Under Construction).wav” WAVE
INDEX 01 00:00:00
TRACK 07 AUDIO
TITLE “Rock It”
PERFORMER “Gorillaz”
INDEX 00 04:18:26
FILE “1.07 – Rock It.wav” WAVE
INDEX 01 00:00:00
TRACK 08 AUDIO
TITLE “Bill Murray”
PERFORMER “Gorillaz”
INDEX 00 03:32:07
FILE “1.08 – Bill Murray.wav” WAVE
INDEX 01 00:00:00
TRACK 09 AUDIO
TITLE “The Swagga”
PERFORMER “Gorillaz”
INDEX 00 03:51:40
FILE “1.09 – The Swagga.wav” WAVE
INDEX 01 00:00:00
TRACK 10 AUDIO
TITLE “Murdoc Is God”
PERFORMER “Gorillaz”
INDEX 00 04:56:43
FILE “1.10 – Murdoc Is God.wav” WAVE
INDEX 01 00:00:00
TRACK 11 AUDIO
TITLE “Spitting Out The Demons”
PERFORMER “Gorillaz”
INDEX 00 02:25:26
FILE “1.11 – Spitting Out The Demons.wav” WAVE
INDEX 01 00:00:00
TRACK 12 AUDIO
TITLE “Don’t Get Lost In Heaven (Demo)”
PERFORMER “Gorillaz”
INDEX 00 05:09:01
FILE “1.12 – Don’t Get Lost In Heaven (Demo).wav” WAVE
INDEX 01 00:00:00
TRACK 13 AUDIO
TITLE “Stop The Dams”
PERFORMER “Gorillaz”
INDEX 00 02:27:66
FILE “1.13 – Stop The Dams.wav” WAVE
INDEX 01 00:00:00
TRACK 14 AUDIO
TITLE “Samba At 13”
PERFORMER “Gorillaz”
INDEX 00 05:37:40
FILE “1.14 – Samba At 13.wav” WAVE
INDEX 01 00:00:00
TRACK 15 AUDIO
TITLE “Film Trailer Music”
PERFORMER “Gorillaz”
INDEX 00 06:22:70
FILE “1.15 – Film Trailer Music.wav” WAVE
INDEX 01 00:00:00

REM GENRE Hip-Hop
REM DATE 2007
REM DISCID 7C0E8F09
REM COMMENT “ExactAudioCopy v0.99pb5”
PERFORMER “Gorillaz”
TITLE “D-Sides (Japan Edition) (CD 2)”
FILE “2.01 – Dare (DFA Remix).wav” WAVE
TRACK 01 AUDIO
TITLE “Dare (DFA Remix)”
PERFORMER “Gorillaz”
INDEX 01 00:00:00
TRACK 02 AUDIO
TITLE “Feel Good Inc. (Stanton Warriors Remix)”
PERFORMER “Gorillaz”
INDEX 00 12:13:28
FILE “2.02 – Feel Good Inc. (Stanton Warriors Remix).wav” WAVE
INDEX 01 00:00:00
TRACK 03 AUDIO
TITLE “Kids With Guns (Jamie T’s Turn to Monsters Mix)”
PERFORMER “Gorillaz”
INDEX 00 07:22:72
FILE “2.03 – Kids With Guns (Jamie T’s Turn to Monsters Mix).wav” WAVE
INDEX 01 00:00:00
TRACK 04 AUDIO
TITLE “Dare (Soulwax remix)”
PERFORMER “Gorillaz”
INDEX 00 04:21:01
FILE “2.04 – Dare (Soulwax remix).wav” WAVE
INDEX 01 00:00:00
TRACK 05 AUDIO
TITLE “Kids With Guns (Hot Chip Remix)”
PERFORMER “Gorillaz”
INDEX 00 05:42:01
FILE “2.05 – Kids With Guns (Hot Chip Remix).wav” WAVE
INDEX 01 00:00:00
TRACK 06 AUDIO
TITLE “El Manana (Metromony Remix)”
PERFORMER “Gorillaz”
INDEX 00 07:07:74
FILE “2.06 – El Manana (Metromony Remix).wav” WAVE
INDEX 01 00:00:00
TRACK 07 AUDIO
TITLE “Dare (Junior Sanchez Remix)”
PERFORMER “Gorillaz”
INDEX 00 05:43:24
FILE “2.07 – Dare (Junior Sanchez Remix).wav” WAVE
INDEX 01 00:00:00
TRACK 08 AUDIO
TITLE “Dirty Harry (Schtung Chinese New Year Remix)”
PERFORMER “Gorillaz”
INDEX 00 05:25:31
FILE “2.08 – Dirty Harry (Schtung Chinese New Year Remix).wav” WAVE
INDEX 01 00:00:00
TRACK 09 AUDIO
TITLE “Kids With Guns (Quiet Village Remix)”
PERFORMER “Gorillaz”
INDEX 00 03:51:13
FILE “2.09 – Kids With Guns (Quiet Village Remix).wav” WAVE
INDEX 01 00:00:00

Leave a Reply

Your email address will not be published. Required fields are marked *

Enter the text from the image below
 

This site uses Akismet to reduce spam. Learn how your comment data is processed.