Good Charlotte – Youth Authority




No Cover available

Artist: Good Charlotte
Year: 2016
Genre: Punk
Notes: Discogs
Add. Notes:
Watch Songs on: YouTube
Cover incl.: Yes
Encoder: FLAC
Bitrate: ~1000 kBit/s (44.1 kHz/16 Bit/s)
Log & Cue incl.: Yes/Yes
Size: 309,3 MB
Password: “slam” (without ” “)


All Downloads/Hosters are compatible

Download 1
KatFile.com
Turbobit.net
Rapidgator.net
FileFactory.com
Download 2
KatFile.com
Turbobit.net
Rapidgator.net
FileFactory.com

Tracklist:

1 Life Changes 
2 Makeshift Love 
3 40oz. Dream 
4 Life Can't Get Much Better 
5 Keep Swingin' 
6 Reason To Stay 
7 Stray Dogs 
8 Stick To Your Guns (Interlude) 
9 The Outfield 
10 Cars Full Of People 
11 War 
12 Moving On 

EAC-Log, CUE-Sheed & NFO:

Click to open spoiler
Exact Audio Copy V1.1 from 23. June 2015

EAC extraction logfile from 24. July 2016, 14:36

Good Charlotte / Youth Authority

Used drive : ASUS DRW-24B1ST j Adapter: 1 ID: 0

Read mode : Secure
Utilize accurate stream : Yes
Defeat audio cache : Yes
Make use of C2 pointers : No

Read offset correction : 6
Overread into Lead-In and Lead-Out : No
Fill up missing offset samples with silence : Yes
Delete leading and trailing silent blocks : No
Null samples used in CRC calculations : Yes
Used interface : Native Win32 interface for Win NT & 2000
Gap handling : Appended to previous track

Used output format : User Defined Encoder
Selected bitrate : 1024 kBit/s
Quality : High
Add ID3 tag : No
Command line compressor : C:\Program Files (x86)\Exact Audio Copy\Flac\flac.exe
Additional command line options : -8 -e -V -T “ARTIST=%artist%” -T “TITLE=%title%” -T “ALBUM=%albumtitle%” -T “DATE=%year%” -T “TRACKNUMBER=%tracknr%” -T “GENRE=%genre%” -T “PERFORMER=%albuminterpret%” -T “COMPOSER=%composer%” %haslyrics%–tag-from-file=LYRICS=”%lyricsfile%”%haslyrics% -T “ALBUMARTIST=%albumartist%” -T “DISCNUMBER=%cdnumber%” -T “TOTALDISCS=%totalcds%” -T “TOTALTRACKS=%numtracks%” -T “COMMENT=%comment%” %source% -o %dest%

TOC of the extracted CD

Track | Start | Length | Start sector | End sector
———————————————————
1 | 0:00.00 | 3:02.56 | 0 | 13705
2 | 3:02.56 | 3:43.16 | 13706 | 30446
3 | 6:45.72 | 3:20.46 | 30447 | 45492
4 | 10:06.43 | 3:24.51 | 45493 | 60843
5 | 13:31.19 | 3:13.32 | 60844 | 75350
6 | 16:44.51 | 3:47.17 | 75351 | 92392
7 | 20:31.68 | 3:54.62 | 92393 | 110004
8 | 24:26.55 | 1:28.67 | 110005 | 116671
9 | 25:55.47 | 3:32.26 | 116672 | 132597
10 | 29:27.73 | 4:38.67 | 132598 | 153514
11 | 34:06.65 | 4:45.26 | 153515 | 174915
12 | 38:52.16 | 3:58.54 | 174916 | 192819

Track 1

Filename M:\EAC Rips\Good Charlotte – Youth Authority (2016) [FLAC]\01 – Life Changes.wav

Pre-gap length 0:00:02.00

Peak level 96.7 %
Extraction speed 4.8 X
Track quality 100.0 %
Test CRC 6B6E2607
Copy CRC 6B6E2607
Track not present in AccurateRip database
Copy OK

Track 2

Filename M:\EAC Rips\Good Charlotte – Youth Authority (2016) [FLAC]\02 – Makeshift Love.wav

Peak level 95.5 %
Extraction speed 5.4 X
Track quality 100.0 %
Test CRC 285B2BA2
Copy CRC 285B2BA2
Track not present in AccurateRip database
Copy OK

Track 3

Filename M:\EAC Rips\Good Charlotte – Youth Authority (2016) [FLAC]\03 – 40 oz. Dream.wav

Peak level 96.6 %
Extraction speed 5.8 X
Track quality 100.0 %
Test CRC 63B58C24
Copy CRC 63B58C24
Track not present in AccurateRip database
Copy OK

Track 4

Filename M:\EAC Rips\Good Charlotte – Youth Authority (2016) [FLAC]\04 – Life Can’t Get Much Better.wav

Peak level 97.1 %
Extraction speed 6.3 X
Track quality 100.0 %
Test CRC 23B19E2C
Copy CRC 23B19E2C
Track not present in AccurateRip database
Copy OK

Track 5

Filename M:\EAC Rips\Good Charlotte – Youth Authority (2016) [FLAC]\05 – Keep Swingin’ (feat. Kellin Quinn).wav

Peak level 96.7 %
Extraction speed 6.5 X
Track quality 100.0 %
Test CRC 1089F218
Copy CRC 1089F218
Track not present in AccurateRip database
Copy OK

Track 6

Filename M:\EAC Rips\Good Charlotte – Youth Authority (2016) [FLAC]\06 – Reason To Stay (feat. Simon Neil).wav

Peak level 96.6 %
Extraction speed 7.1 X
Track quality 100.0 %
Test CRC 987A7384
Copy CRC 987A7384
Track not present in AccurateRip database
Copy OK

Track 7

Filename M:\EAC Rips\Good Charlotte – Youth Authority (2016) [FLAC]\07 – Stray Dogs.wav

Peak level 96.9 %
Extraction speed 7.5 X
Track quality 100.0 %
Test CRC 0C7D7A1B
Copy CRC 0C7D7A1B
Track not present in AccurateRip database
Copy OK

Track 8

Filename M:\EAC Rips\Good Charlotte – Youth Authority (2016) [FLAC]\08 – Stick to Your Guns (Interlude).wav

Peak level 96.5 %
Extraction speed 6.3 X
Track quality 100.0 %
Test CRC 4D3ABA56
Copy CRC 4D3ABA56
Track not present in AccurateRip database
Copy OK

Track 9

Filename M:\EAC Rips\Good Charlotte – Youth Authority (2016) [FLAC]\09 – The Outfield.wav

Peak level 97.0 %
Extraction speed 7.8 X
Track quality 100.0 %
Test CRC 199FF800
Copy CRC 199FF800
Track not present in AccurateRip database
Copy OK

Track 10

Filename M:\EAC Rips\Good Charlotte – Youth Authority (2016) [FLAC]\10 – Cars Full Of People.wav

Peak level 96.6 %
Extraction speed 7.1 X
Track quality 99.9 %
Test CRC C64681AD
Copy CRC C64681AD
Track not present in AccurateRip database
Copy OK

Track 11

Filename M:\EAC Rips\Good Charlotte – Youth Authority (2016) [FLAC]\11 – War.wav

Peak level 96.6 %
Extraction speed 8.9 X
Track quality 100.0 %
Test CRC F2D1F5FD
Copy CRC F2D1F5FD
Track not present in AccurateRip database
Copy OK

Track 12

Filename M:\EAC Rips\Good Charlotte – Youth Authority (2016) [FLAC]\12 – Moving On.wav

Peak level 97.0 %
Extraction speed 7.3 X
Track quality 99.9 %
Test CRC 9A5FD821
Copy CRC 9A5FD821
Track not present in AccurateRip database
Copy OK

None of the tracks are present in the AccurateRip database

No errors occurred

End of status report

—- CUETools DB Plugin V2.1.6

[CTDB TOCID: CvMorj73K2ERz6lDx.Qcj5WYy.I-] found
Submit result: CvMorj73K2ERz6lDx.Qcj5WYy.I- has been confirmed
Track | CTDB Status
1 | (14/14) Accurately ripped
2 | (14/14) Accurately ripped
3 | (14/14) Accurately ripped
4 | (14/14) Accurately ripped
5 | (14/14) Accurately ripped
6 | (14/14) Accurately ripped
7 | (14/14) Accurately ripped
8 | (14/14) Accurately ripped
9 | (14/14) Accurately ripped
10 | (14/14) Accurately ripped
11 | (14/14) Accurately ripped
12 | (14/14) Accurately ripped

==== Log checksum 6C6757E1AEC03C53947F873F637AB921FF8D4A167D3523BE93CC08A99D68769F ====

REM GENRE “Punk Rock”
REM DATE 2016
REM DISCID 9A0A0A0C
REM COMMENT “ExactAudioCopy v1.1”
CATALOG 5060454942542
PERFORMER “Good Charlotte”
TITLE “Youth Authority”
FILE “01 – Life Changes.wav” WAVE
TRACK 01 AUDIO
TITLE “Life Changes”
PERFORMER “Good Charlotte”
ISRC GBWWP1601945
INDEX 01 00:00:00
FILE “02 – Makeshift Love.wav” WAVE
TRACK 02 AUDIO
TITLE “Makeshift Love”
PERFORMER “Good Charlotte”
ISRC GBWWP1601611
INDEX 01 00:00:00
FILE “03 – 40 oz. Dream.wav” WAVE
TRACK 03 AUDIO
TITLE “40 oz. Dream”
PERFORMER “Good Charlotte”
ISRC GBWWP1601939
INDEX 01 00:00:00
FILE “04 – Life Can’t Get Much Better.wav” WAVE
TRACK 04 AUDIO
TITLE “Life Can’t Get Much Better”
PERFORMER “Good Charlotte”
ISRC GBWWP1601946
INDEX 01 00:00:00
FILE “05 – Keep Swingin’ (feat. Kellin Quinn).wav” WAVE
TRACK 05 AUDIO
TITLE “Keep Swingin’ (feat. Kellin Quinn)”
PERFORMER “Good Charlotte”
ISRC GBWWP1601947
INDEX 01 00:00:00
FILE “06 – Reason To Stay (feat. Simon Neil).wav” WAVE
TRACK 06 AUDIO
TITLE “Reason To Stay (feat. Simon Neil)”
PERFORMER “Good Charlotte”
ISRC GBWWP1601948
INDEX 01 00:00:00
FILE “07 – Stray Dogs.wav” WAVE
TRACK 07 AUDIO
TITLE “Stray Dogs”
PERFORMER “Good Charlotte”
ISRC GBWWP1601949
INDEX 01 00:00:00
FILE “08 – Stick to Your Guns (Interlude).wav” WAVE
TRACK 08 AUDIO
TITLE “Stick to Your Guns (Interlude)”
PERFORMER “Good Charlotte”
ISRC GBWWP1601950
INDEX 01 00:00:00
FILE “09 – The Outfield.wav” WAVE
TRACK 09 AUDIO
TITLE “The Outfield”
PERFORMER “Good Charlotte”
ISRC GBWWP1601951
INDEX 01 00:00:00
FILE “10 – Cars Full Of People.wav” WAVE
TRACK 10 AUDIO
TITLE “Cars Full Of People”
PERFORMER “Good Charlotte”
ISRC GBWWP1601952
INDEX 01 00:00:00
FILE “11 – War.wav” WAVE
TRACK 11 AUDIO
TITLE “War”
PERFORMER “Good Charlotte”
ISRC GBWWP1601953
INDEX 01 00:00:00
FILE “12 – Moving On.wav” WAVE
TRACK 12 AUDIO
TITLE “Moving On”
PERFORMER “Good Charlotte”
ISRC GBWWP1601954
INDEX 01 00:00:00


Leave a Reply

Your email address will not be published. Required fields are marked *

Enter the text from the image below
 

This site uses Akismet to reduce spam. Learn how your comment data is processed.