Good Charlotte – Youth Authority (Special Edition)




No Cover available

Artist: Good Charlotte
Year: 2016
Genre: Punk
Notes: Discogs
Add. Notes: Special Edition
Watch Songs on: YouTube
Cover incl.: Yes
Encoder: FLAC
Bitrate: ~1000 kBit/s (44.1 kHz/16 Bit/s)
Log & Cue incl.: Yes/Yes
Size: 378,1 MB
Password: “slam” (without ” “)


All Downloads/Hosters are compatible

Download 1
KatFile.com
Turbobit.net
Rapidgator.net
FileFactory.com
Download 2
KatFile.com
Turbobit.net
Rapidgator.net
FileFactory.com

Tracklist:

1 Life Changes 3:02
2 Makeshift Love 3:43
3 40 Oz. Dream 3:20
4 Life Can't Get Much Better 3:24
5 Keep Swingin' 3:13
6 Reason To Stay 3:47
7 Stray Dogs 3:54
8 Stick To Your Guns (Interlude) 1:28
9 The Outfield 3:32
10 Cars Full Of People 4:38
11 War 4:45
12 Moving On 3:58

Bonus Tracks
13 We'll Let It All Out 4:35
14 Life Is Hard 3:37

EAC-Log, CUE-Sheed & NFO:

Click to open spoiler
AUDIOCHECKER v2.0 beta (build 457) – by Dester – opdester@freemail.hu
~~~~~~~~~~~~~~~~~~~~~~~~~~~~~~~~~~

Started at: понедельник, 15. 08. 2016. – 21:04.26
14 files found

01 -===- D:\+Music\uploads_rutracker.org\Good Charlotte – 2016 – Youth Authority (Australian Edition) [CD] [FLAC]\01 – Life Changes.flac
Extracted successfully
Conclusion: this track is CDDA with probability 100%
Tempfile successfully deleted.

02 -===- D:\+Music\uploads_rutracker.org\Good Charlotte – 2016 – Youth Authority (Australian Edition) [CD] [FLAC]\02 – Makeshift Love.flac
Extracted successfully
Conclusion: this track is CDDA with probability 100%
Tempfile successfully deleted.

03 -===- D:\+Music\uploads_rutracker.org\Good Charlotte – 2016 – Youth Authority (Australian Edition) [CD] [FLAC]\03 – 40 oz. Dream.flac
Extracted successfully
Conclusion: this track is CDDA with probability 100%
Tempfile successfully deleted.

04 -===- D:\+Music\uploads_rutracker.org\Good Charlotte – 2016 – Youth Authority (Australian Edition) [CD] [FLAC]\04 – Life Can’t Get Much Better.flac
Extracted successfully
Conclusion: this track is CDDA with probability 100%
Tempfile successfully deleted.

05 -===- D:\+Music\uploads_rutracker.org\Good Charlotte – 2016 – Youth Authority (Australian Edition) [CD] [FLAC]\05 – Keep Swingin’ (feat. Kellin Quinn).flac
Extracted successfully
Conclusion: this track is CDDA with probability 99%
Tempfile successfully deleted.

06 -===- D:\+Music\uploads_rutracker.org\Good Charlotte – 2016 – Youth Authority (Australian Edition) [CD] [FLAC]\06 – Reason To Stay (feat. Simon Neil).flac
Extracted successfully
Conclusion: this track is CDDA with probability 100%
Tempfile successfully deleted.

07 -===- D:\+Music\uploads_rutracker.org\Good Charlotte – 2016 – Youth Authority (Australian Edition) [CD] [FLAC]\07 – Stray Dogs.flac
Extracted successfully
Conclusion: this track is CDDA with probability 100%
Tempfile successfully deleted.

08 -===- D:\+Music\uploads_rutracker.org\Good Charlotte – 2016 – Youth Authority (Australian Edition) [CD] [FLAC]\08 – Stick to Your Guns Interlude.flac
Extracted successfully
Conclusion: this track is CDDA with probability 100%
Tempfile successfully deleted.

09 -===- D:\+Music\uploads_rutracker.org\Good Charlotte – 2016 – Youth Authority (Australian Edition) [CD] [FLAC]\09 – The Outfield.flac
Extracted successfully
Conclusion: this track is CDDA with probability 100%
Tempfile successfully deleted.

10 -===- D:\+Music\uploads_rutracker.org\Good Charlotte – 2016 – Youth Authority (Australian Edition) [CD] [FLAC]\10 – Cars Full Of People.flac
Extracted successfully
Conclusion: this track is CDDA with probability 100%
Tempfile successfully deleted.

11 -===- D:\+Music\uploads_rutracker.org\Good Charlotte – 2016 – Youth Authority (Australian Edition) [CD] [FLAC]\11 – WAR.flac
Extracted successfully
Conclusion: this track is CDDA with probability 100%
Tempfile successfully deleted.

12 -===- D:\+Music\uploads_rutracker.org\Good Charlotte – 2016 – Youth Authority (Australian Edition) [CD] [FLAC]\12 – Moving On.flac
Extracted successfully
Conclusion: this track is CDDA with probability 100%
Tempfile successfully deleted.

13 -===- D:\+Music\uploads_rutracker.org\Good Charlotte – 2016 – Youth Authority (Australian Edition) [CD] [FLAC]\13 – We’ll Let It All Out (Bonus Track).flac
Extracted successfully
Conclusion: this track is CDDA with probability 100%
Tempfile successfully deleted.

14 -===- D:\+Music\uploads_rutracker.org\Good Charlotte – 2016 – Youth Authority (Australian Edition) [CD] [FLAC]\14 – Life Is Hard (Bonus Track).flac
Extracted successfully
Conclusion: this track is CDDA with probability 100%
Tempfile successfully deleted.

Finished at: понедельник, 15. 08. 2016. – 21:08.06 (operation time: 0:03.39)

PERFORMER “Good Charlotte”
TITLE “Youth Authority”
FILE “Good Charlotte – Youth Authority\01 – Life Changes.flac” WAVE
TRACK 01 AUDIO
TITLE “Life Changes”
PERFORMER “Good Charlotte”
INDEX 01 00:00:00
FILE “Good Charlotte – Youth Authority\02 – Makeshift Love.flac” WAVE
TRACK 02 AUDIO
TITLE “Makeshift Love”
PERFORMER “Good Charlotte”
INDEX 01 00:00:00
FILE “Good Charlotte – Youth Authority\03 – 40 oz. Dream.flac” WAVE
TRACK 03 AUDIO
TITLE “40 oz. Dream”
PERFORMER “Good Charlotte”
INDEX 01 00:00:00
FILE “Good Charlotte – Youth Authority\04 – Life Can’t Get Much Better.flac” WAVE
TRACK 04 AUDIO
TITLE “Life Can’t Get Much Better”
PERFORMER “Good Charlotte”
INDEX 01 00:00:00
FILE “Good Charlotte – Youth Authority\05 – Keep Swingin’ (feat. Kellin Quinn).flac” WAVE
TRACK 05 AUDIO
TITLE “Keep Swingin’ (feat. Kellin Quinn)”
PERFORMER “Good Charlotte”
INDEX 01 00:00:00
FILE “Good Charlotte – Youth Authority\06 – Reason To Stay (feat. Simon Neil).flac” WAVE
TRACK 06 AUDIO
TITLE “Reason To Stay (feat. Simon Neil)”
PERFORMER “Good Charlotte”
INDEX 01 00:00:00
FILE “Good Charlotte – Youth Authority\07 – Stray Dogs.flac” WAVE
TRACK 07 AUDIO
TITLE “Stray Dogs”
PERFORMER “Good Charlotte”
INDEX 01 00:00:00
FILE “Good Charlotte – Youth Authority\08 – Stick to Your Guns Interlude.flac” WAVE
TRACK 08 AUDIO
TITLE “Stick to Your Guns Interlude”
PERFORMER “Good Charlotte”
INDEX 01 00:00:00
FILE “Good Charlotte – Youth Authority\09 – The Outfield.flac” WAVE
TRACK 09 AUDIO
TITLE “The Outfield”
PERFORMER “Good Charlotte”
INDEX 01 00:00:00
FILE “Good Charlotte – Youth Authority\10 – Cars Full Of People.flac” WAVE
TRACK 10 AUDIO
TITLE “Cars Full Of People”
PERFORMER “Good Charlotte”
INDEX 01 00:00:00
FILE “Good Charlotte – Youth Authority\11 – WAR.flac” WAVE
TRACK 11 AUDIO
TITLE “WAR”
PERFORMER “Good Charlotte”
INDEX 01 00:00:00
FILE “Good Charlotte – Youth Authority\12 – Moving On.flac” WAVE
TRACK 12 AUDIO
TITLE “Moving On”
PERFORMER “Good Charlotte”
INDEX 01 00:00:00
FILE “Good Charlotte – Youth Authority\13 – We’ll Let It All Out (Bonus Track).flac” WAVE
TRACK 13 AUDIO
TITLE “We’ll Let It All Out (Bonus Track)”
PERFORMER “Good Charlotte”
INDEX 01 00:00:00
FILE “Good Charlotte – Youth Authority\14 – Life Is Hard (Bonus Track).flac” WAVE
TRACK 14 AUDIO
TITLE “Life Is Hard (Bonus Track)”
PERFORMER “Good Charlotte”
INDEX 01 00:00:00


Leave a Reply

Your email address will not be published. Required fields are marked *

Enter the text from the image below
 

This site uses Akismet to reduce spam. Learn how your comment data is processed.