Good Charlotte – Youth Authority (Japanese Edition)




No Cover available

Artist: Good Charlotte
Year: 2016
Genre: Punk
Notes: Discogs
Add. Notes: Japanese Edition
Watch Songs on: YouTube
Cover incl.: Yes
Encoder: FLAC
Bitrate: ~1000 kBit/s (44.1 kHz/16 Bit/s)
Log & Cue incl.: Yes/Yes
Size: 396 MB
Password: “slam” (without ” “)


All Downloads/Hosters are compatible

Download 1
KatFile.com
Turbobit.net
Rapidgator.net
FileFactory.com
Download 2
KatFile.com
Turbobit.net
Rapidgator.net
FileFactory.com

Tracklist:

1 Life Changes 3:02
2 Makeshift Love 3:43
3 40 Oz. Dream 3:20
4 Life Can't Get Much Better 3:24
5 Keep Swingin' 3:13
6 Reason To Stay 3:47
7 Stray Dogs 3:54
8 Stick To Your Guns (Interlude) 1:28
9 The Outfield 3:32
10 Cars Full Of People 4:38
11 War 4:45
12 Moving On 3:58

Bonus Tracks
13 We'll Let It All Out 4:34
14 Life Is Hard 3:37
15 Comatose 3:59

EAC-Log, CUE-Sheed & NFO:

Click to open spoiler
X Lossless Decoder version 20161007 (149.3)

XLD extraction logfile from 2016-10-12 22:09:16 -0700

Good Charlotte / Youth Authority (Japan Edition)

Used drive : PLEXTOR BDDVDR PX-B310U (revision 1.07)
Media type : Pressed CD

Ripper mode : XLD Secure Ripper
Disable audio cache : OK for the drive with a cache less than 1375KiB
Make use of C2 pointers : NO
Read offset correction : 6
Max retry count : 20
Gap status : Analyzed, Appended (except HTOA)

TOC of the extracted CD
Track | Start | Length | Start sector | End sector
———————————————————
1 | 00:00:00 | 03:02:56 | 0 | 13705
2 | 03:02:56 | 03:43:16 | 13706 | 30446
3 | 06:45:72 | 03:20:46 | 30447 | 45492
4 | 10:06:43 | 03:24:51 | 45493 | 60843
5 | 13:31:19 | 03:13:32 | 60844 | 75350
6 | 16:44:51 | 03:47:17 | 75351 | 92392
7 | 20:31:68 | 03:54:62 | 92393 | 110004
8 | 24:26:55 | 01:28:67 | 110005 | 116671
9 | 25:55:47 | 03:32:26 | 116672 | 132597
10 | 29:27:73 | 04:38:67 | 132598 | 153514
11 | 34:06:65 | 04:45:26 | 153515 | 174915
12 | 38:52:16 | 04:02:53 | 174916 | 193118
13 | 42:54:69 | 04:35:29 | 193119 | 213772
14 | 47:30:23 | 03:37:46 | 213773 | 230093
15 | 51:07:69 | 03:59:11 | 230094 | 248029

AccurateRip Summary
Disc not found in AccurateRip DB.

All Tracks
Album gain : -10.86 dB
Peak : 0.977295
Statistics
Read error : 0
Jitter error (maybe fixed) : 0
Retry sector count : 0
Damaged sector count : 0

Track 01
Filename : /Volumes/2015 FLAC/Good Charlotte – Youth Authority (Japan Edition) (2016) [FLAC]/01 – Life Changes.flac
Pre-gap length : 00:02:00

Track gain : -11.21 dB
Peak : 0.967621
CRC32 hash (test run) : 7E315A11
CRC32 hash : 7E315A11
CRC32 hash (skip zero) : 3075DB8E
AccurateRip v1 signature : FB6D3BFA
AccurateRip v2 signature : 724B1D22
->Track not present in AccurateRip database.
Statistics
Read error : 0
Jitter error (maybe fixed) : 0
Retry sector count : 0
Damaged sector count : 0

Track 02
Filename : /Volumes/2015 FLAC/Good Charlotte – Youth Authority (Japan Edition) (2016) [FLAC]/02 – Makeshift Love.flac

Track gain : -11.20 dB
Peak : 0.966675
CRC32 hash (test run) : 1477D6F9
CRC32 hash : 1477D6F9
CRC32 hash (skip zero) : 68E2AF86
AccurateRip v1 signature : 879461A7
AccurateRip v2 signature : 1C0C0C79
->Track not present in AccurateRip database.
Statistics
Read error : 0
Jitter error (maybe fixed) : 0
Retry sector count : 0
Damaged sector count : 0

Track 03
Filename : /Volumes/2015 FLAC/Good Charlotte – Youth Authority (Japan Edition) (2016) [FLAC]/03 – 40 Oz. Dream.flac

Track gain : -10.74 dB
Peak : 0.966644
CRC32 hash (test run) : E30D1887
CRC32 hash : E30D1887
CRC32 hash (skip zero) : 7075F9F0
AccurateRip v1 signature : A416B379
AccurateRip v2 signature : F176A92C
->Track not present in AccurateRip database.
Statistics
Read error : 0
Jitter error (maybe fixed) : 0
Retry sector count : 0
Damaged sector count : 0

Track 04
Filename : /Volumes/2015 FLAC/Good Charlotte – Youth Authority (Japan Edition) (2016) [FLAC]/04 – Life Can’t Get Much Better.flac

Track gain : -10.59 dB
Peak : 0.971588
CRC32 hash (test run) : 9907F97E
CRC32 hash : 9907F97E
CRC32 hash (skip zero) : 1F6A7585
AccurateRip v1 signature : D81132CB
AccurateRip v2 signature : 84FCC39A
->Track not present in AccurateRip database.
Statistics
Read error : 0
Jitter error (maybe fixed) : 0
Retry sector count : 0
Damaged sector count : 0

Track 05
Filename : /Volumes/2015 FLAC/Good Charlotte – Youth Authority (Japan Edition) (2016) [FLAC]/05 – Keep Swingin’.flac

Track gain : -10.91 dB
Peak : 0.967651
CRC32 hash (test run) : 99FEA8D3
CRC32 hash : 99FEA8D3
CRC32 hash (skip zero) : 5939A253
AccurateRip v1 signature : 03C7FCF3
AccurateRip v2 signature : 9B1313EE
->Track not present in AccurateRip database.
Statistics
Read error : 0
Jitter error (maybe fixed) : 0
Retry sector count : 0
Damaged sector count : 0

Track 06
Filename : /Volumes/2015 FLAC/Good Charlotte – Youth Authority (Japan Edition) (2016) [FLAC]/06 – Reason To Stay.flac

Track gain : -10.98 dB
Peak : 0.966492
CRC32 hash (test run) : EFA496E0
CRC32 hash : EFA496E0
CRC32 hash (skip zero) : E841A74E
AccurateRip v1 signature : A92B1AED
AccurateRip v2 signature : FACBD1C1
->Track not present in AccurateRip database.
Statistics
Read error : 0
Jitter error (maybe fixed) : 0
Retry sector count : 0
Damaged sector count : 0

Track 07
Filename : /Volumes/2015 FLAC/Good Charlotte – Youth Authority (Japan Edition) (2016) [FLAC]/07 – Stray Dogs.flac

Track gain : -10.16 dB
Peak : 0.969269
CRC32 hash (test run) : 27C9C061
CRC32 hash : 27C9C061
CRC32 hash (skip zero) : 8D831E82
AccurateRip v1 signature : D304A130
AccurateRip v2 signature : FF20E5CB
->Track not present in AccurateRip database.
Statistics
Read error : 0
Jitter error (maybe fixed) : 0
Retry sector count : 0
Damaged sector count : 0

Track 08
Filename : /Volumes/2015 FLAC/Good Charlotte – Youth Authority (Japan Edition) (2016) [FLAC]/08 – Stick To Your Guns (Interlude).flac

Track gain : -7.22 dB
Peak : 0.965881
CRC32 hash (test run) : CB04FACF
CRC32 hash : CB04FACF
CRC32 hash (skip zero) : D3C26677
AccurateRip v1 signature : 1B19B957
AccurateRip v2 signature : 2C46EBBD
->Track not present in AccurateRip database.
Statistics
Read error : 0
Jitter error (maybe fixed) : 0
Retry sector count : 0
Damaged sector count : 0

Track 09
Filename : /Volumes/2015 FLAC/Good Charlotte – Youth Authority (Japan Edition) (2016) [FLAC]/09 – The Outfield.flac

Track gain : -11.34 dB
Peak : 0.970795
CRC32 hash (test run) : BED91954
CRC32 hash : BED91954
CRC32 hash (skip zero) : 25E98490
AccurateRip v1 signature : E4F5EDED
AccurateRip v2 signature : 20EF774F
->Track not present in AccurateRip database.
Statistics
Read error : 0
Jitter error (maybe fixed) : 0
Retry sector count : 0
Damaged sector count : 0

Track 10
Filename : /Volumes/2015 FLAC/Good Charlotte – Youth Authority (Japan Edition) (2016) [FLAC]/10 – Cars Full Of People.flac

Track gain : -10.94 dB
Peak : 0.966339
CRC32 hash (test run) : 59573344
CRC32 hash : 59573344
CRC32 hash (skip zero) : EFF542D3
AccurateRip v1 signature : D90AC84D
AccurateRip v2 signature : F3680918
->Track not present in AccurateRip database.
Statistics
Read error : 0
Jitter error (maybe fixed) : 0
Retry sector count : 0
Damaged sector count : 0

Track 11
Filename : /Volumes/2015 FLAC/Good Charlotte – Youth Authority (Japan Edition) (2016) [FLAC]/11 – War.flac

Track gain : -10.65 dB
Peak : 0.966797
CRC32 hash (test run) : 24F4ED54
CRC32 hash : 24F4ED54
CRC32 hash (skip zero) : 42B4D5D7
AccurateRip v1 signature : 57CFAAEF
AccurateRip v2 signature : 917DA591
->Track not present in AccurateRip database.
Statistics
Read error : 0
Jitter error (maybe fixed) : 0
Retry sector count : 0
Damaged sector count : 0

Track 12
Filename : /Volumes/2015 FLAC/Good Charlotte – Youth Authority (Japan Edition) (2016) [FLAC]/12 – Moving On.flac

Track gain : -10.42 dB
Peak : 0.969910
CRC32 hash (test run) : 2AE26ECC
CRC32 hash : 2AE26ECC
CRC32 hash (skip zero) : 0A65502A
AccurateRip v1 signature : F999166A
AccurateRip v2 signature : 84390637
->Track not present in AccurateRip database.
Statistics
Read error : 0
Jitter error (maybe fixed) : 0
Retry sector count : 0
Damaged sector count : 0

Track 13
Filename : /Volumes/2015 FLAC/Good Charlotte – Youth Authority (Japan Edition) (2016) [FLAC]/13 – We’ll Let It All Out.flac
Pre-gap length : 00:03:74

Track gain : -10.68 dB
Peak : 0.977295
CRC32 hash (test run) : 90D7082D
CRC32 hash : 90D7082D
CRC32 hash (skip zero) : 97A56D9E
AccurateRip v1 signature : 8D678F8D
AccurateRip v2 signature : 44DFC200
->Track not present in AccurateRip database.
Statistics
Read error : 0
Jitter error (maybe fixed) : 0
Retry sector count : 0
Damaged sector count : 0

Track 14
Filename : /Volumes/2015 FLAC/Good Charlotte – Youth Authority (Japan Edition) (2016) [FLAC]/14 – Life Is Hard.flac
Pre-gap length : 00:00:57

Track gain : -10.49 dB
Peak : 0.977295
CRC32 hash (test run) : ABEC4823
CRC32 hash : ABEC4823
CRC32 hash (skip zero) : 905C4265
AccurateRip v1 signature : A7E09C63
AccurateRip v2 signature : AF18D222
->Track not present in AccurateRip database.
Statistics
Read error : 0
Jitter error (maybe fixed) : 0
Retry sector count : 0
Damaged sector count : 0

Track 15
Filename : /Volumes/2015 FLAC/Good Charlotte – Youth Authority (Japan Edition) (2016) [FLAC]/15 – Comatose.flac
Pre-gap length : 00:00:41

Track gain : -10.35 dB
Peak : 0.977264
CRC32 hash (test run) : 50DFE750
CRC32 hash : 50DFE750
CRC32 hash (skip zero) : AE5E586C
AccurateRip v1 signature : 928C930B
AccurateRip v2 signature : 0FC1D52B
->Track not present in AccurateRip database.
Statistics
Read error : 0
Jitter error (maybe fixed) : 0
Retry sector count : 0
Damaged sector count : 0

No errors occurred

End of status report

—–BEGIN XLD SIGNATURE—–
sq047MpqrXApP0DqITSIQP6aym5F80QvcpcSxMvD0q0.UX2vU39ef0O_ep7P_Fs6a2xnVWepaqiIjdS3YjGg2ndSYaQ5xBvekBGz4MC
—–END XLD SIGNATURE—–

TITLE “Youth Authority (Japan Edition)”
PERFORMER “Good Charlotte”
REM GENRE “Rock”
REM DATE “2016”
REM DISCNUMBER 1
REM TOTALDISCS 1
REM DISCID D10CEB0F
REM REPLAYGAIN_ALBUM_GAIN -10.86 dB
REM REPLAYGAIN_ALBUM_PEAK 0.977295
REM COMPILATION TRUE
FILE “01 – Life Changes.flac” WAVE
TRACK 01 AUDIO
TITLE “Life Changes”
PERFORMER “Good Charlotte”
ISRC GBWWP1601945
REM REPLAYGAIN_TRACK_GAIN -11.21 dB
REM REPLAYGAIN_TRACK_PEAK 0.967621
INDEX 01 00:00:00
FILE “02 – Makeshift Love.flac” WAVE
TRACK 02 AUDIO
TITLE “Makeshift Love”
PERFORMER “Good Charlotte”
ISRC GBWWP1601611
REM REPLAYGAIN_TRACK_GAIN -11.20 dB
REM REPLAYGAIN_TRACK_PEAK 0.966675
INDEX 01 00:00:00
FILE “03 – 40 Oz. Dream.flac” WAVE
TRACK 03 AUDIO
TITLE “40 Oz. Dream”
PERFORMER “Good Charlotte”
ISRC GBWWP1601939
REM REPLAYGAIN_TRACK_GAIN -10.74 dB
REM REPLAYGAIN_TRACK_PEAK 0.966644
INDEX 01 00:00:00
FILE “04 – Life Can’t Get Much Better.flac” WAVE
TRACK 04 AUDIO
TITLE “Life Can’t Get Much Better”
PERFORMER “Good Charlotte”
ISRC GBWWP1601946
REM REPLAYGAIN_TRACK_GAIN -10.59 dB
REM REPLAYGAIN_TRACK_PEAK 0.971588
INDEX 01 00:00:00
FILE “05 – Keep Swingin’.flac” WAVE
TRACK 05 AUDIO
TITLE “Keep Swingin'”
PERFORMER “Good Charlotte”
ISRC GBWWP1601947
REM REPLAYGAIN_TRACK_GAIN -10.91 dB
REM REPLAYGAIN_TRACK_PEAK 0.967651
INDEX 01 00:00:00
FILE “06 – Reason To Stay.flac” WAVE
TRACK 06 AUDIO
TITLE “Reason To Stay”
PERFORMER “Good Charlotte”
ISRC GBWWP1601948
REM REPLAYGAIN_TRACK_GAIN -10.98 dB
REM REPLAYGAIN_TRACK_PEAK 0.966492
INDEX 01 00:00:00
FILE “07 – Stray Dogs.flac” WAVE
TRACK 07 AUDIO
TITLE “Stray Dogs”
PERFORMER “Good Charlotte”
ISRC GBWWP1601949
REM REPLAYGAIN_TRACK_GAIN -10.16 dB
REM REPLAYGAIN_TRACK_PEAK 0.969269
INDEX 01 00:00:00
FILE “08 – Stick To Your Guns (Interlude).flac” WAVE
TRACK 08 AUDIO
TITLE “Stick To Your Guns (Interlude)”
PERFORMER “Good Charlotte”
ISRC GBWWP1601950
REM REPLAYGAIN_TRACK_GAIN -7.22 dB
REM REPLAYGAIN_TRACK_PEAK 0.965881
INDEX 01 00:00:00
FILE “09 – The Outfield.flac” WAVE
TRACK 09 AUDIO
TITLE “The Outfield”
PERFORMER “Good Charlotte”
ISRC GBWWP1601951
REM REPLAYGAIN_TRACK_GAIN -11.34 dB
REM REPLAYGAIN_TRACK_PEAK 0.970795
INDEX 01 00:00:00
FILE “10 – Cars Full Of People.flac” WAVE
TRACK 10 AUDIO
TITLE “Cars Full Of People”
PERFORMER “Good Charlotte”
ISRC GBWWP1601952
REM REPLAYGAIN_TRACK_GAIN -10.94 dB
REM REPLAYGAIN_TRACK_PEAK 0.966339
INDEX 01 00:00:00
FILE “11 – War.flac” WAVE
TRACK 11 AUDIO
TITLE “War”
PERFORMER “Good Charlotte”
ISRC GBWWP1601953
REM REPLAYGAIN_TRACK_GAIN -10.65 dB
REM REPLAYGAIN_TRACK_PEAK 0.966797
INDEX 01 00:00:00
FILE “12 – Moving On.flac” WAVE
TRACK 12 AUDIO
TITLE “Moving On”
PERFORMER “Good Charlotte”
ISRC GBWWP1601954
REM REPLAYGAIN_TRACK_GAIN -10.42 dB
REM REPLAYGAIN_TRACK_PEAK 0.969910
INDEX 01 00:00:00
TRACK 13 AUDIO
TITLE “We’ll Let It All Out”
PERFORMER “Good Charlotte”
ISRC GBWWP1602058
REM REPLAYGAIN_TRACK_GAIN -10.68 dB
REM REPLAYGAIN_TRACK_PEAK 0.977295
INDEX 00 03:58:54
FILE “13 – We’ll Let It All Out.flac” WAVE
INDEX 01 00:00:00
TRACK 14 AUDIO
TITLE “Life Is Hard”
PERFORMER “Good Charlotte”
ISRC GBWWP1602059
REM REPLAYGAIN_TRACK_GAIN -10.49 dB
REM REPLAYGAIN_TRACK_PEAK 0.977295
INDEX 00 04:34:47
FILE “14 – Life Is Hard.flac” WAVE
INDEX 01 00:00:00
TRACK 15 AUDIO
TITLE “Comatose”
PERFORMER “Good Charlotte”
ISRC GBWWP1602178
REM REPLAYGAIN_TRACK_GAIN -10.35 dB
REM REPLAYGAIN_TRACK_PEAK 0.977264
INDEX 00 03:37:05
FILE “15 – Comatose.flac” WAVE
INDEX 01 00:00:00


Leave a Reply

Your email address will not be published. Required fields are marked *

This site uses Akismet to reduce spam. Learn how your comment data is processed.