Good Charlotte – Greatest Hits




No Cover available


Artist: Good Charlotte
Year: 2010
Genre: Punk
Notes: Discogs
Add. Notes:
Watch Songs on: YouTube
Cover incl.: Yes
Encoder: FLAC
Bitrate: ~1000 kBit/s (44.1 kHz/16 Bit/s)
Log & Cue incl.: Yes/Yes
Size: 405,9 MB
Password: “slam” (without ” “)


All Downloads/Hosters are compatible

Download 1
KatFile.com
Turbobit.net
Rapidgator.net
FileFactory.com
Download 2
KatFile.com
Turbobit.net
Rapidgator.net
FileFactory.com

Tracklist:

1 Little Things 
2 The Motivation Proclamation 
3 Festival Song 
4 Lifestyles Of The Rich & Famous 
5 The Anthem 
6 Girls & Boys 
7 The Young & The Hopeless 
8 Hold On 
9 Predictable 
10 I Just Wanna Live 
11 The Chronicles Of Life And Death 
12 We Believe 
13 The River 
14 Keep You Hands Of My Girl 
15 I Don't Wanna Be In Love 
16 Misery

EAC-Log, CUE-Sheed & NFO:

Click to open spoiler
Exact Audio Copy V1.0 beta 3 from 29. August 2011

EAC extraction logfile from 27. September 2012, 18:58

Good Charlotte / Greatest Hits

Used drive : HL-DT-STDVDRAM GH24NS50 Adapter: 1 ID: 2

Read mode : Secure
Utilize accurate stream : Yes
Defeat audio cache : Yes
Make use of C2 pointers : No

Read offset correction : 667
Overread into Lead-In and Lead-Out : No
Fill up missing offset samples with silence : Yes
Delete leading and trailing silent blocks : No
Null samples used in CRC calculations : Yes
Used interface : Native Win32 interface for Win NT & 2000
Gap handling : Appended to previous track

Used output format : User Defined Encoder
Selected bitrate : 320 kBit/s
Quality : High
Add ID3 tag : No
Command line compressor : C:\Program Files (x86)\FLAC\flac.exe
Additional command line options : -8 -V -T “ARTIST=%artist%” -T “TITLE=%title%” -T “ALBUM=%albumtitle%” -T “DATE=%year%” -T “TRACKNUMBER=%tracknr1%” -T “GENRE=%genre%” -T “PERFORMER=%albuminterpret%” -T “COMPOSER=%composer%” %haslyrics%–tag-from-file=LYRICS=”%lyricsfile%”%haslyrics% -T “ALBUMARTIST=%albumartist%” -T “DISCNUMBER=%cdnumber%” -T “TOTALDISCS=%totalcds%” -T “TOTALTRACKS=%numtracks%” -T “COMMENT=%comment%” %source% -o %dest%

TOC of the extracted CD

Track | Start | Length | Start sector | End sector
———————————————————
1 | 0:00.00 | 3:23.55 | 0 | 15279
2 | 3:23.55 | 3:36.57 | 15280 | 31536
3 | 7:00.37 | 3:00.36 | 31537 | 45072
4 | 10:00.73 | 3:10.17 | 45073 | 59339
5 | 13:11.15 | 2:55.15 | 59340 | 72479
6 | 16:06.30 | 3:03.03 | 72480 | 86207
7 | 19:09.33 | 3:31.70 | 86208 | 102102
8 | 22:41.28 | 4:04.35 | 102103 | 120437
9 | 26:45.63 | 3:11.17 | 120438 | 134779
10 | 29:57.05 | 2:45.71 | 134780 | 147225
11 | 32:43.01 | 3:03.63 | 147226 | 161013
12 | 35:46.64 | 3:52.17 | 161014 | 178430
13 | 39:39.06 | 3:16.28 | 178431 | 193158
14 | 42:55.34 | 3:25.19 | 193159 | 208552
15 | 46:20.53 | 4:04.61 | 208553 | 226913
16 | 50:25.39 | 3:48.59 | 226914 | 244072

Track 1

Filename M:\My Music\EAC Rips\Good Charlotte – Greatest Hits (2010) [FLAC]\01 – Little Things.wav

Pre-gap length 0:00:02.00

Peak level 100.0 %
Extraction speed 0.9 X
Track quality 100.0 %
Test CRC 31973B57
Copy CRC 31973B57
Accurately ripped (confidence 3) [F4614E48] (AR v1)
Copy OK

Track 2

Filename M:\My Music\EAC Rips\Good Charlotte – Greatest Hits (2010) [FLAC]\02 – The Motivation Proclamation.wav

Pre-gap length 0:00:00.93

Peak level 100.0 %
Extraction speed 0.9 X
Track quality 99.9 %
Test CRC 405513F2
Copy CRC 405513F2
Accurately ripped (confidence 3) [7C4070A1] (AR v1)
Copy OK

Track 3

Filename M:\My Music\EAC Rips\Good Charlotte – Greatest Hits (2010) [FLAC]\03 – Festival Song.wav

Pre-gap length 0:00:01.56

Peak level 100.0 %
Extraction speed 1.1 X
Track quality 100.0 %
Test CRC E84F0091
Copy CRC E84F0091
Accurately ripped (confidence 3) [1E96A790] (AR v1)
Copy OK

Track 4

Filename M:\My Music\EAC Rips\Good Charlotte – Greatest Hits (2010) [FLAC]\04 – Lifestyles Of The Rich And Famous.wav

Pre-gap length 0:00:01.60

Peak level 98.8 %
Extraction speed 1.0 X
Track quality 99.9 %
Test CRC F7619DC3
Copy CRC F7619DC3
Accurately ripped (confidence 3) [07C21DC8] (AR v1)
Copy OK

Track 5

Filename M:\My Music\EAC Rips\Good Charlotte – Greatest Hits (2010) [FLAC]\05 – The Anthem.wav

Peak level 98.8 %
Extraction speed 1.2 X
Track quality 100.0 %
Test CRC 77B23A25
Copy CRC 77B23A25
Accurately ripped (confidence 3) [81B18F84] (AR v1)
Copy OK

Track 6

Filename M:\My Music\EAC Rips\Good Charlotte – Greatest Hits (2010) [FLAC]\06 – Girls & Boys.wav

Pre-gap length 0:00:00.98

Peak level 98.8 %
Extraction speed 1.3 X
Track quality 100.0 %
Test CRC 71A60EAA
Copy CRC 71A60EAA
Accurately ripped (confidence 3) [A47959CB] (AR v1)
Copy OK

Track 7

Filename M:\My Music\EAC Rips\Good Charlotte – Greatest Hits (2010) [FLAC]\07 – The Young And The Hopeless.wav

Pre-gap length 0:00:01.34

Peak level 98.8 %
Extraction speed 1.4 X
Track quality 100.0 %
Test CRC 4B97A0AC
Copy CRC 4B97A0AC
Accurately ripped (confidence 3) [E8153F90] (AR v1)
Copy OK

Track 8

Filename M:\My Music\EAC Rips\Good Charlotte – Greatest Hits (2010) [FLAC]\08 – Hold On.wav

Pre-gap length 0:00:01.25

Peak level 98.8 %
Extraction speed 1.5 X
Track quality 100.0 %
Test CRC 6EC153CD
Copy CRC 6EC153CD
Accurately ripped (confidence 3) [00099DAA] (AR v1)
Copy OK

Track 9

Filename M:\My Music\EAC Rips\Good Charlotte – Greatest Hits (2010) [FLAC]\09 – Predictable.wav

Peak level 98.8 %
Extraction speed 1.3 X
Track quality 99.9 %
Test CRC 3AB9D1F1
Copy CRC 3AB9D1F1
Accurately ripped (confidence 3) [41A111E3] (AR v1)
Copy OK

Track 10

Filename M:\My Music\EAC Rips\Good Charlotte – Greatest Hits (2010) [FLAC]\10 – I Just Wanna Live.wav

Peak level 98.8 %
Extraction speed 1.5 X
Track quality 100.0 %
Test CRC 567A30B0
Copy CRC 567A30B0
Accurately ripped (confidence 3) [A2321210] (AR v1)
Copy OK

Track 11

Filename M:\My Music\EAC Rips\Good Charlotte – Greatest Hits (2010) [FLAC]\11 – The Chronicles Of Life & Death.wav

Peak level 98.8 %
Extraction speed 1.6 X
Track quality 100.0 %
Test CRC BBC89F07
Copy CRC BBC89F07
Accurately ripped (confidence 3) [79945994] (AR v1)
Copy OK

Track 12

Filename M:\My Music\EAC Rips\Good Charlotte – Greatest Hits (2010) [FLAC]\12 – We Believe.wav

Pre-gap length 0:00:01.76

Peak level 98.8 %
Extraction speed 1.8 X
Track quality 100.0 %
Test CRC 8D1E310F
Copy CRC 8D1E310F
Accurately ripped (confidence 3) [A842620D] (AR v1)
Copy OK

Track 13

Filename M:\My Music\EAC Rips\Good Charlotte – Greatest Hits (2010) [FLAC]\13 – The River.wav

Pre-gap length 0:00:00.44

Peak level 93.8 %
Extraction speed 1.8 X
Track quality 100.0 %
Test CRC BAD43288
Copy CRC BAD43288
Accurately ripped (confidence 3) [D2A2CB8A] (AR v1)
Copy OK

Track 14

Filename M:\My Music\EAC Rips\Good Charlotte – Greatest Hits (2010) [FLAC]\14 – Keep Your Hands Off My Girl.wav

Pre-gap length 0:00:00.56

Peak level 93.8 %
Extraction speed 1.9 X
Track quality 100.0 %
Test CRC 48AE7452
Copy CRC 48AE7452
Accurately ripped (confidence 3) [BBAFA924] (AR v1)
Copy OK

Track 15

Filename M:\My Music\EAC Rips\Good Charlotte – Greatest Hits (2010) [FLAC]\15 – Dance Floor Anthem.wav

Pre-gap length 0:00:01.30

Peak level 93.8 %
Extraction speed 2.0 X
Track quality 100.0 %
Test CRC 88D306A0
Copy CRC 88D306A0
Accurately ripped (confidence 3) [954EEE24] (AR v1)
Copy OK

Track 16

Filename M:\My Music\EAC Rips\Good Charlotte – Greatest Hits (2010) [FLAC]\16 – Misery.wav

Pre-gap length 0:00:00.66

Peak level 93.8 %
Extraction speed 1.8 X
Track quality 99.9 %
Test CRC EEBE830D
Copy CRC EEBE830D
Accurately ripped (confidence 3) [A3CAEA40] (AR v1)
Copy OK

All tracks accurately ripped

No errors occurred

End of status report

—- CUETools DB Plugin V2.1.3

[CTDB TOCID: X6LLdT3Z60J.AAIIi4z_JmOFIis-] found, Submit result: X6LLdT3Z60J.AAIIi4z_JmOFIis- has been confirmed
[b53c9d09] (7/8) Accurately ripped
[513615b8] (1/8) No match

==== Log checksum C6BA5AA6142990AECFA6D8A26B25FBB68272CAC2A82F8B069F3D7560B9FCA957 ====

REM GENRE “Punk Rock”
REM DATE 2010
REM DISCID E60CB610
REM COMMENT “ExactAudioCopy v1.0b3”
PERFORMER “Good Charlotte”
TITLE “Greatest Hits”
FILE “01 – Little Things.wav” WAVE
TRACK 01 AUDIO
TITLE “Little Things”
PERFORMER “Good Charlotte”
ISRC USSM10011171
INDEX 01 00:00:00
TRACK 02 AUDIO
TITLE “The Motivation Proclamation”
PERFORMER “Good Charlotte”
ISRC USSM10014085
INDEX 00 03:22:60
FILE “02 – The Motivation Proclamation.wav” WAVE
INDEX 01 00:00:00
TRACK 03 AUDIO
TITLE “Festival Song”
PERFORMER “Good Charlotte”
ISRC USSM10014087
INDEX 00 03:35:15
FILE “03 – Festival Song.wav” WAVE
INDEX 01 00:00:00
TRACK 04 AUDIO
TITLE “Lifestyles Of The Rich And Famous”
PERFORMER “Good Charlotte”
ISRC USSM10210275
INDEX 00 02:58:66
FILE “04 – Lifestyles Of The Rich And Famous.wav” WAVE
INDEX 01 00:00:00
FILE “05 – The Anthem.wav” WAVE
TRACK 05 AUDIO
TITLE “The Anthem”
PERFORMER “Good Charlotte”
ISRC USSM10209827
INDEX 01 00:00:00
TRACK 06 AUDIO
TITLE “Girls & Boys”
PERFORMER “Good Charlotte”
ISRC USSM10209831
INDEX 00 02:54:16
FILE “06 – Girls & Boys.wav” WAVE
INDEX 01 00:00:00
TRACK 07 AUDIO
TITLE “The Young And The Hopeless”
PERFORMER “Good Charlotte”
ISRC USSM10209837
INDEX 00 03:01:52
FILE “07 – The Young And The Hopeless.wav” WAVE
INDEX 01 00:00:00
TRACK 08 AUDIO
TITLE “Hold On”
PERFORMER “Good Charlotte”
ISRC USSM10209833
INDEX 00 03:30:51
FILE “08 – Hold On.wav” WAVE
INDEX 01 00:00:00
FILE “09 – Predictable.wav” WAVE
TRACK 09 AUDIO
TITLE “Predictable”
PERFORMER “Good Charlotte”
ISRC USSM10411364
INDEX 01 00:00:00
FILE “10 – I Just Wanna Live.wav” WAVE
TRACK 10 AUDIO
TITLE “I Just Wanna Live”
PERFORMER “Good Charlotte”
ISRC USSM10412717
INDEX 01 00:00:00
FILE “11 – The Chronicles Of Life & Death.wav” WAVE
TRACK 11 AUDIO
TITLE “The Chronicles Of Life & Death”
PERFORMER “Good Charlotte”
ISRC USSM10412714
INDEX 01 00:00:00
TRACK 12 AUDIO
TITLE “We Believe”
PERFORMER “Good Charlotte”
ISRC USSM10412723
INDEX 00 03:02:06
FILE “12 – We Believe.wav” WAVE
INDEX 01 00:00:00
TRACK 13 AUDIO
TITLE “The River”
PERFORMER “Good Charlotte”
ISRC USSM10606774
INDEX 00 03:51:59
FILE “13 – The River.wav” WAVE
INDEX 01 00:00:00
TRACK 14 AUDIO
TITLE “Keep Your Hands Off My Girl”
PERFORMER “Good Charlotte”
ISRC USSM10605926
INDEX 00 03:15:61
FILE “14 – Keep Your Hands Off My Girl.wav” WAVE
INDEX 01 00:00:00
TRACK 15 AUDIO
TITLE “Dance Floor Anthem”
PERFORMER “Good Charlotte”
ISRC USSM10607447
INDEX 00 03:23:71
FILE “15 – Dance Floor Anthem.wav” WAVE
INDEX 01 00:00:00
TRACK 16 AUDIO
TITLE “Misery”
PERFORMER “Good Charlotte”
ISRC USSM10607446
INDEX 00 04:04:11
FILE “16 – Misery.wav” WAVE
INDEX 01 00:00:00


Leave a Reply

Your email address will not be published. Required fields are marked *

Enter the text from the image below
 

This site uses Akismet to reduce spam. Learn how your comment data is processed.