Goldfinger – Open Your Eyes




No Cover available


Artist: Goldfinger
Year: 2002
Genre: Punk
Notes: Discogs
Add. Notes:
Watch Songs on: YouTube
Cover incl.: Yes
Encoder: FLAC
Bitrate: ~1000 kBit/s (44.1 kHz/16 Bit/s)
Log & Cue incl.: Yes/Yes
Size: 273,4 MB
Password: “slam” (without ” “)


All Downloads/Hosters are compatible

Download 1
KatFile.com
Turbobit.net
Rapidgator.net
FileFactory.com
Download 2
KatFile.com
Turbobit.net
Rapidgator.net
FileFactory.com

Tracklist:

1 Going Home 1:36
2 Spokesman 2:33
3 Open Your Eyes 2:47
4 Decision 2:51
5 Dad 3:00
6 Tell Me 2:14
7 Liar 0:20
8 January 3:42
9 Happy 2:42
10 Woodchuck 0:51
11 It's Your Life 2:24
12 Spank Bank 1:20
13 Youth 2:29
14 Radio 3:24
15 FTN (Fuck Ted Nugent) 2:01
16 Prank Calls 2:14
17 Wayne Gretzky 1:42

EAC-Log, CUE-Sheed & NFO:

Click to open spoiler
EAC extraction logfile from 12. June 2008, 13:23 for CD
Goldfinger / Open Your Eyes

Used drive : HL-DT-STDVDRRW GSA-H21L Adapter: 2 ID: 0
Read mode : Secure with NO C2, accurate stream, disable cache
Read offset correction : 102
Overread into Lead-In and Lead-Out : No

Used output format : C:\Program Files\Exact Audio Copy\flac.exe (User Defined Encoder)
128 kBit/s
Additional command line options : -V -8 -T “artist=%a” -T “title=%t” -T “album=%g” -T “date=%y” -T “tracknumber=%n” -T “genre=%m” %s

Other options :
Fill up missing offset samples with silence : Yes
Delete leading and trailing silent blocks : No
Installed external ASPI interface

Track 1
Filename C:\Goldfinger-Open Your Eyes-2002\01 – Going Home.wav

Pre-gap length 0:00:02.00

Peak level 98.8 %
Track quality 100.0 %
Test CRC A00E03A9
Copy CRC A00E03A9
Copy OK

Track 2
Filename C:\Goldfinger-Open Your Eyes-2002\02 – Spokesman.wav

Peak level 98.8 %
Track quality 100.0 %
Test CRC 0E086497
Copy CRC 0E086497
Copy OK

Track 3
Filename C:\Goldfinger-Open Your Eyes-2002\03 – Open Your Eyes.wav

Peak level 98.8 %
Track quality 100.0 %
Test CRC F2AD55DC
Copy CRC F2AD55DC
Copy OK

Track 4
Filename C:\Goldfinger-Open Your Eyes-2002\04 – Decision.wav

Peak level 98.8 %
Track quality 100.0 %
Test CRC BCC06D38
Copy CRC BCC06D38
Copy OK

Track 5
Filename C:\Goldfinger-Open Your Eyes-2002\05 – Dad.wav

Peak level 98.8 %
Track quality 100.0 %
Test CRC 7B8CEC08
Copy CRC 7B8CEC08
Copy OK

Track 6
Filename C:\Goldfinger-Open Your Eyes-2002\06 – Tell Me.wav

Peak level 98.8 %
Track quality 100.0 %
Test CRC 15E51E25
Copy CRC 15E51E25
Copy OK

Track 7
Filename C:\Goldfinger-Open Your Eyes-2002\07 – Liar.wav

Peak level 98.8 %
Track quality 100.0 %
Test CRC BC0C6D31
Copy CRC BC0C6D31
Copy OK

Track 8
Filename C:\Goldfinger-Open Your Eyes-2002\08 – January.wav

Peak level 98.8 %
Track quality 100.0 %
Test CRC DA53349B
Copy CRC DA53349B
Copy OK

Track 9
Filename C:\Goldfinger-Open Your Eyes-2002\09 – Happy.wav

Peak level 98.8 %
Track quality 100.0 %
Test CRC B77DAD62
Copy CRC B77DAD62
Copy OK

Track 10
Filename C:\Goldfinger-Open Your Eyes-2002\10 – Woodchuck.wav

Peak level 98.8 %
Track quality 100.0 %
Test CRC A2B20451
Copy CRC A2B20451
Copy OK

Track 11
Filename C:\Goldfinger-Open Your Eyes-2002\11 – It’s Your Life.wav

Peak level 98.8 %
Track quality 99.9 %
Test CRC DDBBCC8D
Copy CRC DDBBCC8D
Copy OK

Track 12
Filename C:\Goldfinger-Open Your Eyes-2002\12 – Spank Bank.wav

Peak level 98.8 %
Track quality 100.0 %
Test CRC 31C830DD
Copy CRC 31C830DD
Copy OK

Track 13
Filename C:\Goldfinger-Open Your Eyes-2002\13 – Youth.wav

Peak level 98.8 %
Track quality 100.0 %
Test CRC 55BB973E
Copy CRC 55BB973E
Copy OK

Track 14
Filename C:\Goldfinger-Open Your Eyes-2002\14 – Radio.wav

Peak level 98.8 %
Track quality 100.0 %
Test CRC 47CCFACC
Copy CRC 47CCFACC
Copy OK

Track 15
Filename C:\Goldfinger-Open Your Eyes-2002\15 – FTN.wav

Peak level 98.8 %
Track quality 100.0 %
Test CRC C48D9113
Copy CRC C48D9113
Copy OK

Track 16
Filename C:\Goldfinger-Open Your Eyes-2002\16 – Prank Phone Calls.wav

Pre-gap length 0:00:03.64

Peak level 61.4 %
Track quality 100.0 %
Test CRC 4741338A
Copy CRC 4741338A
Copy OK

Track 17
Filename C:\Goldfinger-Open Your Eyes-2002\17 – Wayne Gretski.wav

Peak level 66.0 %
Track quality 99.8 %
Test CRC 651C4613
Copy CRC 651C4613
Copy OK

No errors occured

End of status report

REM GENRE “Punk Rock”
REM DATE 2002
REM DISCID ED125112
REM COMMENT “ExactAudioCopy v0.95b3”
PERFORMER “Goldfinger”
TITLE “Open Your Eyes”
FILE “01 – Going Home.wav” WAVE
TRACK 01 AUDIO
TITLE “Going Home”
PERFORMER “Goldfinger”
INDEX 01 00:00:00
FILE “02 – Spokesman.wav” WAVE
TRACK 02 AUDIO
TITLE “Spokesman”
PERFORMER “Goldfinger”
INDEX 01 00:00:00
FILE “03 – Open Your Eyes.wav” WAVE
TRACK 03 AUDIO
TITLE “Open Your Eyes”
PERFORMER “Goldfinger”
INDEX 01 00:00:00
FILE “04 – Decision.wav” WAVE
TRACK 04 AUDIO
TITLE “Decision”
PERFORMER “Goldfinger”
INDEX 01 00:00:00
FILE “05 – Dad.wav” WAVE
TRACK 05 AUDIO
TITLE “Dad”
PERFORMER “Goldfinger”
INDEX 01 00:00:00
FILE “06 – Tell Me.wav” WAVE
TRACK 06 AUDIO
TITLE “Tell Me”
PERFORMER “Goldfinger”
INDEX 01 00:00:00
FILE “07 – Liar.wav” WAVE
TRACK 07 AUDIO
TITLE “Liar”
PERFORMER “Goldfinger”
INDEX 01 00:00:00
FILE “08 – January.wav” WAVE
TRACK 08 AUDIO
TITLE “January”
PERFORMER “Goldfinger”
INDEX 01 00:00:00
FILE “09 – Happy.wav” WAVE
TRACK 09 AUDIO
TITLE “Happy”
PERFORMER “Goldfinger”
INDEX 01 00:00:00
FILE “10 – Woodchuck.wav” WAVE
TRACK 10 AUDIO
TITLE “Woodchuck”
PERFORMER “Goldfinger”
INDEX 01 00:00:00
FILE “11 – It’s Your Life.wav” WAVE
TRACK 11 AUDIO
TITLE “It’s Your Life”
PERFORMER “Goldfinger”
INDEX 01 00:00:00
FILE “12 – Spank Bank.wav” WAVE
TRACK 12 AUDIO
TITLE “Spank Bank”
PERFORMER “Goldfinger”
INDEX 01 00:00:00
FILE “13 – Youth.wav” WAVE
TRACK 13 AUDIO
TITLE “Youth”
PERFORMER “Goldfinger”
INDEX 01 00:00:00
FILE “14 – Radio.wav” WAVE
TRACK 14 AUDIO
TITLE “Radio”
PERFORMER “Goldfinger”
INDEX 01 00:00:00
FILE “15 – FTN.wav” WAVE
TRACK 15 AUDIO
TITLE “FTN”
PERFORMER “Goldfinger”
INDEX 01 00:00:00
TRACK 16 AUDIO
TITLE “Prank Phone Calls”
PERFORMER “Goldfinger”
INDEX 00 01:57:35
FILE “16 – Prank Phone Calls.wav” WAVE
INDEX 01 00:00:00
FILE “17 – Wayne Gretski.wav” WAVE
TRACK 17 AUDIO
TITLE “Wayne Gretski”
PERFORMER “Goldfinger”
INDEX 01 00:00:00
TRACK 18 MODEx/2xxx
TITLE “DATA”
PERFORMER “Goldfinger”
INDEX 00 01:40:70


Leave a Reply

Your email address will not be published. Required fields are marked *

Enter the text from the image below
 

This site uses Akismet to reduce spam. Learn how your comment data is processed.