Glen Hansard – This Wild Willing




Artist: Glen Hansard
Year: 2019
Genre: Rock
Notes: Discogs
Add. Notes:
Cover incl.: Yes
Encoder: FLAC
Bitrate: ~1000 kBit/s (44.1 kHz/16 Bit/s)
Log & Cue incl.: Yes
Size: 389,26 MB
Password: “slam” (without ” “)


All Downloads/Hosters are compatible

Download 1
Turbobit.net
KatFile.com
Rapidgator.net
Download 2
Turbobit.net
KatFile.com
Rapidgator.net

Tracklist:

1 - I'll Be You, Be Me - 4:24
2 - Don't Settle - 6:01
3 - Fool's Game - 6:04
4 - Race To The Bottom - 6:16
5 - The Closing Door - 4:27
6 - Brother's Keeper - 5:07
7 - Mary - 3:41
8 - Threading Water - 4:13
9 - Weight Of The World - 7:29
10 - Who's Gonna Be Your Baby Now - 4:34
11 - Good Life Of Song - 7:36
12 - Leave A Light - 4:28

EAC-Log, CUE-Sheed & NFO:

Click to open spoiler
Exact Audio Copy V1.3 from 2. September 2016

EAC extraction logfile from 22. May 2019, 14:28

Glen Hansard / This Wild Willing

Used drive : MATSHITADVD-RAM UJ8E2 Adapter: 1 ID: 0

Read mode : Secure
Utilize accurate stream : Yes
Defeat audio cache : Yes
Make use of C2 pointers : No

Read offset correction : 103
Overread into Lead-In and Lead-Out : No
Fill up missing offset samples with silence : Yes
Delete leading and trailing silent blocks : No
Null samples used in CRC calculations : Yes
Used interface : Native Win32 interface for Win NT & 2000
Gap handling : Appended to previous track

Used output format : User Defined Encoder
Selected bitrate : 1024 kBit/s
Quality : High
Add ID3 tag : No
Command line compressor : C:\Program Files (x86)\Exact Audio Copy\Flac\flac.exe
Additional command line options : -8 -V -T “ARTIST=%artist%” -T “TITLE=%title%” -T “ALBUM=%albumtitle%” -T “DATE=%year%” -T “TRACKNUMBER=%tracknr%” -T “GENRE=%genre%” -T “PERFORMER=%albuminterpret%” -T “COMPOSER=%composer%” %haslyrics%–tag-from-file=LYRICS=”%lyricsfile%”%haslyrics% -T “ALBUMARTIST=%albumartist%” -T “DISCNUMBER=%cdnumber%” -T “TOTALDISCS=%totalcds%” -T “TOTALTRACKS=%numtracks%” -T “COMMENT=%comment%” %source% -o %dest%

TOC of the extracted CD

Track | Start | Length | Start sector | End sector
———————————————————
1 | 0:00.00 | 4:23.50 | 0 | 19774
2 | 4:23.50 | 6:01.25 | 19775 | 46874
3 | 10:25.00 | 6:04.06 | 46875 | 74180
4 | 16:29.06 | 6:15.56 | 74181 | 102361
5 | 22:44.62 | 4:27.27 | 102362 | 122413
6 | 27:12.14 | 5:07.12 | 122414 | 145450
7 | 32:19.26 | 3:40.46 | 145451 | 161996
8 | 35:59.72 | 4:12.61 | 161997 | 180957
9 | 40:12.58 | 7:28.59 | 180958 | 214616
10 | 47:41.42 | 4:33.51 | 214617 | 235142
11 | 52:15.18 | 7:36.35 | 235143 | 269377
12 | 59:51.53 | 4:27.67 | 269378 | 289469

Track 1

Filename C:\EAC Rips\Glen Hansard (2019) This Wild Willing [FLAC] {87661-2}\ 01 – I’ll Be You, Be Me.wav

Pre-gap length 0:00:02.00

Peak level 100.0 %
Extraction speed 2.6 X
Track quality 100.0 %
Test CRC 09819242
Copy CRC 09819242
Cannot be verified as accurate (confidence 2) [D0C62A5D], AccurateRip returned [8669F197] (AR v2)
Copy OK

Track 2

Filename C:\EAC Rips\Glen Hansard (2019) This Wild Willing [FLAC] {87661-2}\ 02 – Don’t Settle.wav

Peak level 100.0 %
Extraction speed 3.0 X
Track quality 100.0 %
Test CRC F4C35B69
Copy CRC F4C35B69
Cannot be verified as accurate (confidence 2) [5B098D8B], AccurateRip returned [EA2B2AC7] (AR v2)
Copy OK

Track 3

Filename C:\EAC Rips\Glen Hansard (2019) This Wild Willing [FLAC] {87661-2}\ 03 – Fool’s Game.wav

Peak level 100.0 %
Extraction speed 3.4 X
Track quality 100.0 %
Test CRC 94D0D629
Copy CRC 94D0D629
Cannot be verified as accurate (confidence 2) [6219A3E7], AccurateRip returned [B0B6FEF6] (AR v2)
Copy OK

Track 4

Filename C:\EAC Rips\Glen Hansard (2019) This Wild Willing [FLAC] {87661-2}\ 04 – Race To The Bottom.wav

Peak level 100.0 %
Extraction speed 3.7 X
Track quality 100.0 %
Test CRC 861B2A59
Copy CRC 861B2A59
Cannot be verified as accurate (confidence 2) [65470BC2], AccurateRip returned [E4E2BDFD] (AR v2)
Copy OK

Track 5

Filename C:\EAC Rips\Glen Hansard (2019) This Wild Willing [FLAC] {87661-2}\ 05 – The Closing Door.wav

Pre-gap length 0:00:02.54

Peak level 100.0 %
Extraction speed 3.9 X
Track quality 100.0 %
Test CRC 0CEE88C9
Copy CRC 0CEE88C9
Cannot be verified as accurate (confidence 2) [5B8D6F42], AccurateRip returned [24D5E22F] (AR v2)
Copy OK

Track 6

Filename C:\EAC Rips\Glen Hansard (2019) This Wild Willing [FLAC] {87661-2}\ 06 – Brother’s Keeper.wav

Pre-gap length 0:00:01.97

Peak level 100.0 %
Extraction speed 4.1 X
Track quality 100.0 %
Test CRC 3DDFCA95
Copy CRC 3DDFCA95
Cannot be verified as accurate (confidence 2) [B81903F7], AccurateRip returned [43C132CC] (AR v2)
Copy OK

Track 7

Filename C:\EAC Rips\Glen Hansard (2019) This Wild Willing [FLAC] {87661-2}\ 07 – Mary.wav

Peak level 100.0 %
Extraction speed 4.1 X
Track quality 100.0 %
Test CRC A706C70B
Copy CRC A706C70B
Cannot be verified as accurate (confidence 2) [DACDECB6], AccurateRip returned [A92537EB] (AR v2)
Copy OK

Track 8

Filename C:\EAC Rips\Glen Hansard (2019) This Wild Willing [FLAC] {87661-2}\ 08 – Threading Water.wav

Pre-gap length 0:00:00.66

Peak level 100.0 %
Extraction speed 4.4 X
Track quality 100.0 %
Test CRC 58D5F7A4
Copy CRC 58D5F7A4
Cannot be verified as accurate (confidence 2) [5F908F08], AccurateRip returned [08AD49A0] (AR v2)
Copy OK

Track 9

Filename C:\EAC Rips\Glen Hansard (2019) This Wild Willing [FLAC] {87661-2}\ 09 – Weight Of The World.wav

Peak level 100.0 %
Extraction speed 4.9 X
Track quality 100.0 %
Test CRC AD8C93AF
Copy CRC AD8C93AF
Cannot be verified as accurate (confidence 2) [EC483EAD], AccurateRip returned [3D034050] (AR v2)
Copy OK

Track 10

Filename C:\EAC Rips\Glen Hansard (2019) This Wild Willing [FLAC] {87661-2}\ 10 – Who’s Gonna Be Your Baby Now.wav

Peak level 100.0 %
Extraction speed 4.8 X
Track quality 100.0 %
Test CRC 3E6C8D27
Copy CRC 3E6C8D27
Cannot be verified as accurate (confidence 2) [2FD52C2E], AccurateRip returned [1CD9D8CC] (AR v2)
Copy OK

Track 11

Filename C:\EAC Rips\Glen Hansard (2019) This Wild Willing [FLAC] {87661-2}\ 11 – Good Life Of Song.wav

Peak level 100.0 %
Extraction speed 4.5 X
Track quality 99.9 %
Test CRC 5B9EDA64
Copy CRC 5B9EDA64
Cannot be verified as accurate (confidence 2) [EAE50C08], AccurateRip returned [1E4960E1] (AR v2)
Copy OK

Track 12

Filename C:\EAC Rips\Glen Hansard (2019) This Wild Willing [FLAC] {87661-2}\ 12 – Leave A Light.wav

Pre-gap length 0:00:01.65

Peak level 98.8 %
Extraction speed 4.0 X
Track quality 99.9 %
Test CRC 9564A21A
Copy CRC 9564A21A
Cannot be verified as accurate (confidence 2) [29BB643F], AccurateRip returned [C8AC776A] (AR v2)
Copy OK

No tracks could be verified as accurate
You may have a different pressing from the one(s) in the database

No errors occurred

End of status report

—- CUETools DB Plugin V2.1.6

[CTDB TOCID: PaE3The3r.KLrUdv_wv9PJUpu_8-] found
Submit result: PaE3The3r.KLrUdv_wv9PJUpu_8- has been confirmed
Track | CTDB Status
1 | (41/41) Accurately ripped
2 | (41/41) Accurately ripped
3 | (41/41) Accurately ripped
4 | (41/41) Accurately ripped
5 | (41/41) Accurately ripped
6 | (41/41) Accurately ripped
7 | (41/41) Accurately ripped
8 | (41/41) Accurately ripped
9 | (41/41) Accurately ripped
10 | (41/41) Accurately ripped
11 | (41/41) Accurately ripped
12 | (41/41) Accurately ripped

==== Log checksum 5436A743BCE798F15327E7B9A8A724F02FAE60860AB07D931DC2961613E07EC5 ====

REM GENRE Rock
REM DATE 2019
REM DISCID A80F130C
REM COMMENT “ExactAudioCopy v1.3”
CATALOG 0045778766123
PERFORMER “Glen Hansard”
TITLE “This Wild Willing”
REM COMPOSER “”
FILE “Glen Hansard (2019) This Wild Willing [FLAC] {87661-2}\ 01 – I’ll Be You, Be Me.wav” WAVE
TRACK 01 AUDIO
TITLE “I’ll Be You, Be Me”
PERFORMER “Glen Hansard”
REM COMPOSER “”
ISRC USEP41847001
INDEX 01 00:00:00
FILE “Glen Hansard (2019) This Wild Willing [FLAC] {87661-2}\ 02 – Don’t Settle.wav” WAVE
TRACK 02 AUDIO
TITLE “Don’t Settle”
PERFORMER “Glen Hansard”
REM COMPOSER “”
ISRC USEP41847002
INDEX 01 00:00:00
FILE “Glen Hansard (2019) This Wild Willing [FLAC] {87661-2}\ 03 – Fool’s Game.wav” WAVE
TRACK 03 AUDIO
TITLE “Fool’s Game”
PERFORMER “Glen Hansard”
REM COMPOSER “”
ISRC USEP41847003
INDEX 01 00:00:00
FILE “Glen Hansard (2019) This Wild Willing [FLAC] {87661-2}\ 04 – Race To The Bottom.wav” WAVE
TRACK 04 AUDIO
TITLE “Race To The Bottom”
PERFORMER “Glen Hansard”
REM COMPOSER “”
ISRC USEP41847004
INDEX 01 00:00:00
TRACK 05 AUDIO
TITLE “The Closing Door”
PERFORMER “Glen Hansard”
REM COMPOSER “”
ISRC USEP41847005
INDEX 00 06:13:15
FILE “Glen Hansard (2019) This Wild Willing [FLAC] {87661-2}\ 05 – The Closing Door.wav” WAVE
INDEX 01 00:00:00
TRACK 06 AUDIO
TITLE “Brother’s Keeper”
PERFORMER “Glen Hansard”
REM COMPOSER “”
ISRC USEP41847006
INDEX 00 04:25:29
FILE “Glen Hansard (2019) This Wild Willing [FLAC] {87661-2}\ 06 – Brother’s Keeper.wav” WAVE
INDEX 01 00:00:00
FILE “Glen Hansard (2019) This Wild Willing [FLAC] {87661-2}\ 07 – Mary.wav” WAVE
TRACK 07 AUDIO
TITLE “Mary”
PERFORMER “Glen Hansard”
REM COMPOSER “”
ISRC USEP41847007
INDEX 01 00:00:00
TRACK 08 AUDIO
TITLE “Threading Water”
PERFORMER “Glen Hansard”
REM COMPOSER “”
ISRC USEP41847008
INDEX 00 03:39:71
FILE “Glen Hansard (2019) This Wild Willing [FLAC] {87661-2}\ 08 – Threading Water.wav” WAVE
INDEX 01 00:00:00
FILE “Glen Hansard (2019) This Wild Willing [FLAC] {87661-2}\ 09 – Weight Of The World.wav” WAVE
TRACK 09 AUDIO
TITLE “Weight Of The World”
PERFORMER “Glen Hansard”
REM COMPOSER “”
ISRC USEP41847009
INDEX 01 00:00:00
FILE “Glen Hansard (2019) This Wild Willing [FLAC] {87661-2}\ 10 – Who’s Gonna Be Your Baby Now.wav” WAVE
TRACK 10 AUDIO
TITLE “Who’s Gonna Be Your Baby Now”
PERFORMER “Glen Hansard”
REM COMPOSER “”
ISRC USEP41847010
INDEX 01 00:00:00
FILE “Glen Hansard (2019) This Wild Willing [FLAC] {87661-2}\ 11 – Good Life Of Song.wav” WAVE
TRACK 11 AUDIO
TITLE “Good Life Of Song”
PERFORMER “Glen Hansard”
REM COMPOSER “”
ISRC USEP41847011
INDEX 01 00:00:00
TRACK 12 AUDIO
TITLE “Leave A Light”
PERFORMER “Glen Hansard”
REM COMPOSER “”
ISRC USEP41847012
INDEX 00 07:34:61
FILE “Glen Hansard (2019) This Wild Willing [FLAC] {87661-2}\ 12 – Leave A Light.wav” WAVE
INDEX 01 00:00:00


Leave a Reply

Your email address will not be published. Required fields are marked *

This site uses Akismet to reduce spam. Learn how your comment data is processed.