George Harrison – Wonderwall Music (Remastered)




Artist: George Harrison
Year: 1968/1992
Genre: Rock
Notes: Discogs
Add. Notes: Remastered
Cover incl.: Yes
Encoder: FLAC
Bitrate: ~800 kBit/s (44.1 kHz/16 Bit/s)
Log & Cue incl.: Yes
Size: 292 MB
Password: “slam” (without ” “)


All Downloads/Hosters are compatible

Download 1
KatFile.com
Turbobit.net
Rapidgator.net
Turbobit.net
Download 2
KatFile.com
Turbobit.net
Rapidgator.net
Turbobit.net

Tracklist:

1  - Microbes  - 3:42
2  - Red Lady Too  - 1:55
3  - Tabla And Pakavaj  - 1:05
4  - In The Park  - 4:08
5  - Drilling A Home  - 3:07
6  - Guru Vandana  - 1:04
7  - Greasy Legs  - 1:27
8  - Ski-ing  - 1:50
9  - Gat Kirwani  - 1:15
10  - Dream Scene  - 5:26
11  - Party Seacombe  - 4:34
12  - Love Scene  - 4:17
13  - Crying  - 1:14
14  - Cowboy Music  - 1:28
15  - Fantasy Sequins  - 1:50
16  - On The Bed  - 2:21
17  - Glass Box  - 1:04
18  - Wonderwall To Be Here  - 1:25
19  - Singing Om  - 1:54

EAC-Log, CUE-Sheed & NFO:

Click to open spoiler
Exact Audio Copy V0.99 prebeta 5 from 4. May 2009

Отчёт EAC об извлечении, выполненном 15. августа 2014, 22:26

George Harrison / Wonderwall Music

Дисковод: SONY BD RW BDX-S500U Adapter: 1 ID: 0

Режим чтения : Достоверность
Использование точного потока : Да
Отключение кэша аудио : Да
Использование указателей C2 : Нет

Коррекция смещения при чтении : 48
Способность читать области Lead-in и Lead-out : Нет
Заполнение пропущенных сэмплов тишиной : Да
Удаление блоков с тишиной в начале и конце : Нет
При вычислениях CRC использовались нулевые сэмплы : Да
Интерфейс : Встроенный Win32-интерфейс для Win NT/2000

Выходной формат : Пользовательский кодировщик
Выбранный битрейт : 128 kBit/s
Качество : Высокий
Добавление ID3-тэга : Нет
Утилита сжатия : C:\Program Files (x86)\FLAC\flac.exe

TOC извлечённого CD

Трек | Старт | Длительность | Начальный сектор | Конечный сектор
———————————————————————
1 | 0:00.33 | 3:44.70 | 33 | 16902
2 | 3:45.28 | 1:57.12 | 16903 | 25689
3 | 5:42.40 | 1:05.03 | 25690 | 30567
4 | 6:47.43 | 4:10.42 | 30568 | 49359
5 | 10:58.10 | 3:07.63 | 49360 | 63447
6 | 14:05.73 | 1:07.35 | 63448 | 68507
7 | 15:13.33 | 1:27.57 | 68508 | 75089
8 | 16:41.15 | 1:50.03 | 75090 | 83342
9 | 18:31.18 | 1:15.35 | 83343 | 89002
10 | 19:46.53 | 5:30.25 | 89003 | 113777
11 | 25:17.03 | 4:35.57 | 113778 | 134459
12 | 29:52.60 | 4:17.25 | 134460 | 153759
13 | 34:10.10 | 1:19.65 | 153760 | 159749
14 | 35:30.00 | 1:30.18 | 159750 | 166517
15 | 37:00.18 | 1:51.10 | 166518 | 174852
16 | 38:51.28 | 2:23.60 | 174853 | 185637
17 | 41:15.13 | 1:07.00 | 185638 | 190662
18 | 42:22.13 | 1:27.15 | 190663 | 197202
19 | 43:49.28 | 1:54.30 | 197203 | 205782

Характеристики диапазона извлечения и сообщения об ошибках

Выбранный диапазон

Имя файла F:\Harrison_CDS\Wonderwall Music\George Harrison – Wonderwall Music.wav

Пиковый уровень 96.6 %
Качество диапазона 100.0 %
CRC теста EB7B61F2
CRC копии EB7B61F2
Копирование… OK

Ошибок не произошло

AccurateRip: сводка

Трек 1 точное извлечение (доверие 6) [2D1F5CB8]
Трек 2 точное извлечение (доверие 6) [4CD7B6A4]
Трек 3 точное извлечение (доверие 6) [E78590B7]
Трек 4 точное извлечение (доверие 6) [BE627FE7]
Трек 5 точное извлечение (доверие 6) [1028474E]
Трек 6 точное извлечение (доверие 6) [49212392]
Трек 7 точное извлечение (доверие 6) [DE6F90E4]
Трек 8 точное извлечение (доверие 6) [BEDD682A]
Трек 9 точное извлечение (доверие 6) [AB6A7396]
Трек 10 точное извлечение (доверие 6) [089598DF]
Трек 11 точное извлечение (доверие 6) [10836CCF]
Трек 12 точное извлечение (доверие 6) [95D3AD5A]
Трек 13 точное извлечение (доверие 6) [A8565BF6]
Трек 14 точное извлечение (доверие 6) [8426D11C]
Трек 15 точное извлечение (доверие 6) [43E98BD0]
Трек 16 точное извлечение (доверие 6) [13064C28]
Трек 17 точное извлечение (доверие 6) [EB582EF4]
Трек 18 точное извлечение (доверие 6) [7EE23270]
Трек 19 точное извлечение (доверие 6) [964BC107]

Все треки извлечены точно

Конец отчёта

REM GENRE Soundtrack
REM DATE 1968
REM DISCID E70AB713
REM COMMENT “ExactAudioCopy v0.99pb5”
PERFORMER “George Harrison”
TITLE “Wonderwall Music”
FILE “George Harrison – Wonderwall Music.flac” WAVE
TRACK 01 AUDIO
TITLE “Microbes”
PERFORMER “George Harrison”
INDEX 00 00:00:00
INDEX 01 00:00:33
TRACK 02 AUDIO
TITLE “Red Alady Too”
PERFORMER “George Harrison”
INDEX 00 03:42:33
INDEX 01 03:45:28
TRACK 03 AUDIO
TITLE “Tabla and Pakavaj”
PERFORMER “George Harrison”
INDEX 00 05:41:08
INDEX 01 05:42:40
TRACK 04 AUDIO
TITLE “In the Park”
PERFORMER “George Harrison”
INDEX 00 06:47:40
INDEX 01 06:47:43
TRACK 05 AUDIO
TITLE “Drilling a Home”
PERFORMER “George Harrison”
INDEX 00 10:55:70
INDEX 01 10:58:10
TRACK 06 AUDIO
TITLE “Guru Vandana”
PERFORMER “George Harrison”
INDEX 00 14:05:70
INDEX 01 14:05:73
TRACK 07 AUDIO
TITLE “Greasy Legs”
PERFORMER “George Harrison”
INDEX 00 15:10:53
INDEX 01 15:13:33
TRACK 08 AUDIO
TITLE “Ski-Ing”
PERFORMER “George Harrison”
INDEX 00 16:41:13
INDEX 01 16:41:15
TRACK 09 AUDIO
TITLE “Gat Kirwani”
PERFORMER “George Harrison”
INDEX 00 18:31:15
INDEX 01 18:31:18
TRACK 10 AUDIO
TITLE “Dream Scene”
PERFORMER “George Harrison”
INDEX 00 19:46:50
INDEX 01 19:46:53
TRACK 11 AUDIO
TITLE “Party Seacombe”
PERFORMER “George Harrison”
INDEX 00 25:13:03
INDEX 01 25:17:03
TRACK 12 AUDIO
TITLE “Love Scene”
PERFORMER “George Harrison”
INDEX 00 29:51:35
INDEX 01 29:52:60
TRACK 13 AUDIO
TITLE “Crying”
PERFORMER “George Harrison”
INDEX 00 34:10:08
INDEX 01 34:10:10
TRACK 14 AUDIO
TITLE “Cowboy Music”
PERFORMER “George Harrison”
INDEX 00 35:25:08
INDEX 01 35:30:00
TRACK 15 AUDIO
TITLE “Fantasy Sequins”
PERFORMER “George Harrison”
INDEX 00 36:58:58
INDEX 01 37:00:18
TRACK 16 AUDIO
TITLE “On the Bed”
PERFORMER “George Harrison”
INDEX 00 38:50:65
INDEX 01 38:51:28
TRACK 17 AUDIO
TITLE “Glass Box”
PERFORMER “George Harrison”
INDEX 00 41:13:23
INDEX 01 41:15:13
TRACK 18 AUDIO
TITLE “Wonderwall to Be Here”
PERFORMER “George Harrison”
INDEX 00 42:20:05
INDEX 01 42:22:13
TRACK 19 AUDIO
TITLE “Singing Om”
PERFORMER “George Harrison”
INDEX 00 43:47:35
INDEX 01 43:49:28


Leave a Reply

Your email address will not be published. Required fields are marked *

Enter the text from the image below
 

This site uses Akismet to reduce spam. Learn how your comment data is processed.