George Harrison – Thirty Three & 1/3




[Total: 0    Average: 0/5]

Artist: George Harrison
Year: 1976/1991
Genre: Rock
Notes: Discogs
Add. Notes:
Cover incl.: Yes
Encoder: FLAC
Bitrate: ~900 kBit/s (44.1 kHz/16 Bit/s)
Log & Cue incl.: Yes/Yes
Size: 404,5 MB
Password: “slam” (without ” “)


All Downloads/Hosters are compatible

Download 1
KatFile.com
Turbobit.net
FileFactory.com
Rapidgator.net
Download 2
KatFile.com
Turbobit.net
FileFactory.com
Rapidgator.net

Tracklist:

1 Woman, Don't You Cry For Me 
2 Dear One 
3 Beautiful Girl 
4 This Song 
5 See Yourself 
6 It's What You Value 
7 True Love 
8 Pure Smokey 
9 Crackerbox Palace 
10 Learning How To Love You

EAC-Log, CUE-Sheed & NFO:

Click to open spoiler
Exact Audio Copy V1.0 beta 3 from 29. August 2011

EAC extraction logfile from 21. August 2014, 10:58

George Harrison / Thirty Three & 1/3 (9 26612-2)

Used drive : SONY CD-RW CRX210E1 Adapter: 0 ID: 1

Read mode : Secure
Utilize accurate stream : Yes
Defeat audio cache : Yes
Make use of C2 pointers : No

Read offset correction : 6
Overread into Lead-In and Lead-Out : No
Fill up missing offset samples with silence : Yes
Delete leading and trailing silent blocks : No
Null samples used in CRC calculations : Yes
Used interface : Native Win32 interface for Win NT & 2000

Used output format : User Defined Encoder
Selected bitrate : 768 kBit/s
Quality : High
Add ID3 tag : No
Command line compressor : D:\ПРОГИ\Flac\flac.exe
Additional command line options : -V -8 %source%

TOC of the extracted CD

Track | Start | Length | Start sector | End sector
———————————————————
1 | 0:00.32 | 3:18.45 | 32 | 14926
2 | 3:19.02 | 5:08.35 | 14927 | 38061
3 | 8:27.37 | 3:42.20 | 38062 | 54731
4 | 12:09.57 | 4:14.03 | 54732 | 73784
5 | 16:23.60 | 2:51.70 | 73785 | 86679
6 | 19:15.55 | 5:08.20 | 86680 | 109799
7 | 24:24.00 | 2:44.25 | 109800 | 122124
8 | 27:08.25 | 3:55.72 | 122125 | 139821
9 | 31:04.22 | 3:58.25 | 139822 | 157696
10 | 35:02.47 | 4:13.08 | 157697 | 176679

Range status and errors

Selected range

Filename K:\Ready.zp\George Harrison – Thirty Three & 1,3 (9 26612-2).wav

Peak level 100.0 %
Extraction speed 14.0 X
Range quality 100.0 %
Test CRC 9394555F
Copy CRC 9394555F
Copy OK

No errors occurred

AccurateRip summary

Track 1 accurately ripped (confidence 7) [00B6AF62] (AR v2)
Track 2 accurately ripped (confidence 5) [AC5FEA12] (AR v2)
Track 3 accurately ripped (confidence 6) [623D6AB1] (AR v2)
Track 4 accurately ripped (confidence 6) [267B37E2] (AR v2)
Track 5 accurately ripped (confidence 7) [19DAE76A] (AR v2)
Track 6 accurately ripped (confidence 7) [2EEC8708] (AR v2)
Track 7 accurately ripped (confidence 7) [65740F70] (AR v2)
Track 8 accurately ripped (confidence 7) [D5281749] (AR v2)
Track 9 accurately ripped (confidence 8) [11FA64E2] (AR v2)
Track 10 accurately ripped (confidence 7) [B7726C31] (AR v2)

All tracks accurately ripped

End of status report

==== Log checksum 57C181953587123E34C0F98EA4BDC09C0A5D31F7BC7C1BE6644FB946D522C6BC ====

REM GENRE Rock
REM DATE 1976
REM DISCID 7909330A
REM COMMENT “ExactAudioCopy v1.0b3”
PERFORMER “George Harrison”
TITLE “Thirty Three & 1/3 (9 26612-2)”
FILE “George Harrison – Thirty Three & 1,3 (9 26612-2).flac” WAVE
TRACK 01 AUDIO
TITLE “Woman Don’t You Cry For Me”
PERFORMER “George Harrison”
INDEX 00 00:00:00
INDEX 01 00:00:32
TRACK 02 AUDIO
TITLE “Dear One”
PERFORMER “George Harrison”
INDEX 00 03:17:42
INDEX 01 03:19:02
TRACK 03 AUDIO
TITLE “Beautiful Girl”
PERFORMER “George Harrison”
INDEX 01 08:27:37
TRACK 04 AUDIO
TITLE “This Song”
PERFORMER “George Harrison”
INDEX 00 12:06:30
INDEX 01 12:09:57
TRACK 05 AUDIO
TITLE “See Yourself”
PERFORMER “George Harrison”
INDEX 00 16:21:72
INDEX 01 16:23:60
TRACK 06 AUDIO
TITLE “It’s What You Value”
PERFORMER “George Harrison”
INDEX 00 19:13:72
INDEX 01 19:15:55
TRACK 07 AUDIO
TITLE “True Love”
PERFORMER “George Harrison”
INDEX 00 24:22:72
INDEX 01 24:24:00
TRACK 08 AUDIO
TITLE “Pure Smokey”
PERFORMER “George Harrison”
INDEX 01 27:08:25
TRACK 09 AUDIO
TITLE “Crackerbox Palace”
PERFORMER “George Harrison”
INDEX 00 31:03:27
INDEX 01 31:04:22
TRACK 10 AUDIO
TITLE “Learning How To Love You”
PERFORMER “George Harrison”
INDEX 00 35:00:67
INDEX 01 35:02:47


Spread the Download

Leave a Reply

Your email address will not be published. Required fields are marked *

Enter the text from the image below
 

This site uses Akismet to reduce spam. Learn how your comment data is processed.