George Harrison – The Best Of George Harrison




No Cover available

Artist: George Harrison
Year: 1976/1988
Genre: Rock
Notes: Discogs
Add. Notes:
Watch Songs on: YouTube
Cover incl.: Yes
Encoder: FLAC
Bitrate: ~800 kBit/s (44.1 kHz/16 Bit/s)
Log & Cue incl.: Yes/Yes
Size: 291 MB
Password: “slam” (without ” “)


All Downloads/Hosters are compatible

Download 1
KatFile.com
Turbobit.net
FileFactory.com
Rapidgator.net
Download 2
KatFile.com
Turbobit.net
FileFactory.com
Rapidgator.net

Tracklist:

1. The Beatles - Something 
2. The Beatles - If I Needed 
Someone
3. The Beatles - Here Comes The Sun 
4. The Beatles - Taxman 
5. The Beatles - Think For Yourself 
6. The Beatles - For You Blue 
7. The Beatles - While My Guitar 
Gently Weeps 
8. George Harrison - My Sweet Lord 
9. George Harrison - Give Me Love 
(Give Me Peace On 
Earth) 
10. George Harrison - You 
11. George Harrison - Bangla Desh 
12. George Harrison - Dark Horse 
13. George Harrison - What Is Life

EAC-Log, CUE-Sheed & NFO:

Click to open spoiler
Exact Audio Copy V1.0 beta 3 from 29. August 2011

EAC extraction logfile from 27. July 2014, 18:58

George Harrison / The Best Of George Harrison (CDP 7 46682 2)

Used drive : PLEXTOR DVDR PX-891SA Adapter: 3 ID: 0

Read mode : Secure
Utilize accurate stream : Yes
Defeat audio cache : Yes
Make use of C2 pointers : No

Read offset correction : 6
Overread into Lead-In and Lead-Out : No
Fill up missing offset samples with silence : Yes
Delete leading and trailing silent blocks : No
Null samples used in CRC calculations : Yes
Used interface : Native Win32 interface for Win NT & 2000

Used output format : User Defined Encoder
Selected bitrate : 1024 kBit/s
Quality : High
Add ID3 tag : No
Command line compressor : C:\Program Files\Exact Audio Copy\Flac\flac.exe
Additional command line options : -V -8 -T “Genre=%genre%” -T “Artist=%artist%” -T “Title=%title%” -T “Album=%albumtitle%” -T “Date=%year%” -T “Tracknumber=%tracknr%” -T “Comment=%comment%” %source%

TOC of the extracted CD

Track | Start | Length | Start sector | End sector
———————————————————
1 | 0:00.33 | 3:03.50 | 33 | 13807
2 | 3:04.08 | 2:23.27 | 13808 | 24559
3 | 5:27.35 | 3:07.45 | 24560 | 38629
4 | 8:35.05 | 2:38.00 | 38630 | 50479
5 | 11:13.05 | 2:21.03 | 50480 | 61057
6 | 13:34.08 | 2:32.60 | 61058 | 72517
7 | 16:06.68 | 4:47.32 | 72518 | 94074
8 | 20:54.25 | 4:39.65 | 94075 | 115064
9 | 25:34.15 | 3:36.70 | 115065 | 131334
10 | 29:11.10 | 3:42.55 | 131335 | 148039
11 | 32:53.65 | 3:59.18 | 148040 | 165982
12 | 36:53.08 | 3:54.40 | 165983 | 183572
13 | 40:47.48 | 4:16.50 | 183573 | 202822

Range status and errors

Selected range

Filename H:\dafnaplus\1976 George Harrison – The Best Of George Harrison\George Harrison – The Best Of George Harrison (CDP 7 46682 2).wav

Peak level 100.0 %
Extraction speed 8.6 X
Range quality 100.0 %
Test CRC 79F20AD2
Copy CRC 79F20AD2
Copy OK

No errors occurred

AccurateRip summary

Track 1 accurately ripped (confidence 12) [174AECEA] (AR v2)
Track 2 accurately ripped (confidence 13) [1499A824] (AR v2)
Track 3 accurately ripped (confidence 12) [70E66147] (AR v2)
Track 4 accurately ripped (confidence 12) [F52C772D] (AR v2)
Track 5 accurately ripped (confidence 12) [FCC5932B] (AR v2)
Track 6 accurately ripped (confidence 12) [AA0C78EE] (AR v2)
Track 7 accurately ripped (confidence 12) [0C1B6AF2] (AR v2)
Track 8 accurately ripped (confidence 14) [1499D8A6] (AR v2)
Track 9 accurately ripped (confidence 15) [8DE8DB4C] (AR v2)
Track 10 accurately ripped (confidence 14) [E21F33BF] (AR v2)
Track 11 accurately ripped (confidence 14) [C4F1C826] (AR v2)
Track 12 accurately ripped (confidence 13) [04A8607E] (AR v2)
Track 13 accurately ripped (confidence 14) [37F787D9] (AR v2)

All tracks accurately ripped

End of status report

==== Log checksum 15094C0FB71E0828C32F1618039A202ADBE83207A3905938C4A1434168742B89 ====

REM GENRE Rock
REM DATE 1987
REM DISCID C40A900D
REM COMMENT “ExactAudioCopy v1.0b3”
PERFORMER “George Harrison”
TITLE “The Best Of George Harrison (CDP 7 46682 2)”
FILE “George Harrison – The Best Of George Harrison (CDP 7 46682 2).flac” WAVE
TRACK 01 AUDIO
TITLE “Something ”
PERFORMER “George Harrison”
INDEX 00 00:00:00
INDEX 01 00:00:33
TRACK 02 AUDIO
TITLE “If I Needed Someone”
PERFORMER “George Harrison”
INDEX 00 03:01:20
INDEX 01 03:04:08
TRACK 03 AUDIO
TITLE “Here Comes The Sun ”
PERFORMER “George Harrison”
INDEX 00 05:25:38
INDEX 01 05:27:35
TRACK 04 AUDIO
TITLE “Taxman ”
PERFORMER “George Harrison”
INDEX 00 08:32:60
INDEX 01 08:35:05
TRACK 05 AUDIO
TITLE “Think For Yourself ”
PERFORMER “George Harrison”
INDEX 00 11:11:38
INDEX 01 11:13:05
TRACK 06 AUDIO
TITLE “For You Blue ”
PERFORMER “George Harrison”
INDEX 00 13:31:30
INDEX 01 13:34:08
TRACK 07 AUDIO
TITLE “While My Guitar Gently Weeps ”
PERFORMER “George Harrison”
INDEX 00 16:05:00
INDEX 01 16:06:68
TRACK 08 AUDIO
TITLE “My Sweet Lord”
PERFORMER “George Harrison”
INDEX 00 20:52:28
INDEX 01 20:54:25
TRACK 09 AUDIO
TITLE “Give Me Love (Give Me Peace On Earth)”
PERFORMER “George Harrison”
INDEX 00 25:32:05
INDEX 01 25:34:15
TRACK 10 AUDIO
TITLE “You”
PERFORMER “George Harrison”
INDEX 00 29:08:60
INDEX 01 29:11:10
TRACK 11 AUDIO
TITLE “Bangla Desh”
PERFORMER “George Harrison”
INDEX 00 32:52:48
INDEX 01 32:53:65
TRACK 12 AUDIO
TITLE “Dark Horse”
PERFORMER “George Harrison”
INDEX 00 36:51:23
INDEX 01 36:53:08
TRACK 13 AUDIO
TITLE “What Is Life”
PERFORMER “George Harrison”
INDEX 00 40:46:03
INDEX 01 40:47:48


Leave a Reply

Your email address will not be published. Required fields are marked *

Enter the text from the image below
 

This site uses Akismet to reduce spam. Learn how your comment data is processed.