George Harrison – Somewhere In England




No Cover available

Artist: George Harrison
Year: 1981/1991
Genre: Rock
Notes: Discogs
Add. Notes:
Watch Songs on: YouTube
Cover incl.: Yes
Encoder: FLAC
Bitrate: ~800 kBit/s (44.1 kHz/16 Bit/s)
Log & Cue incl.: Yes/Yes
Size: 396,3 MB
Password: “slam” (without ” “)


All Downloads/Hosters are compatible

Download 1
KatFile.com
Turbobit.net
FileFactory.com
Rapidgator.net
Download 2
KatFile.com
Turbobit.net
FileFactory.com
Rapidgator.net

Tracklist:

1 Blood From A Clone 3:58
2 Unconsciousness Rules 3:04
3 Life Itself 4:24
4 All Those Years Ago 3:43
5 Baltimore Oriole 3:57
6 Teardrops 4:04
7 That Which I Have Lost 3:42
8 Writing's On The Wall 3:57
9 Hong Kong Blues 2:54
10 Save The World 4:56

EAC-Log, CUE-Sheed & NFO:

Click to open spoiler
Exact Audio Copy V1.0 beta 3 from 29. August 2011

EAC extraction logfile from 21. August 2014, 11:20

George Harrison / Somewhere In England (7599-26614-2)

Used drive : SONY CD-RW CRX210E1 Adapter: 0 ID: 1

Read mode : Secure
Utilize accurate stream : Yes
Defeat audio cache : Yes
Make use of C2 pointers : No

Read offset correction : 6
Overread into Lead-In and Lead-Out : No
Fill up missing offset samples with silence : Yes
Delete leading and trailing silent blocks : No
Null samples used in CRC calculations : Yes
Used interface : Native Win32 interface for Win NT & 2000

Used output format : User Defined Encoder
Selected bitrate : 768 kBit/s
Quality : High
Add ID3 tag : No
Command line compressor : D:\ПРОГИ\Flac\flac.exe
Additional command line options : -V -8 %source%

TOC of the extracted CD

Track | Start | Length | Start sector | End sector
———————————————————
1 | 0:00.00 | 4:04.15 | 0 | 18314
2 | 4:04.15 | 3:06.02 | 18315 | 32266
3 | 7:10.17 | 4:26.50 | 32267 | 52266
4 | 11:36.67 | 3:47.23 | 52267 | 69314
5 | 15:24.15 | 3:59.45 | 69315 | 87284
6 | 19:23.60 | 4:09.50 | 87285 | 106009
7 | 23:33.35 | 3:46.47 | 106010 | 123006
8 | 27:20.07 | 4:01.50 | 123007 | 141131
9 | 31:21.57 | 2:56.23 | 141132 | 154354
10 | 34:18.05 | 4:55.27 | 154355 | 176506

Range status and errors

Selected range

Filename K:\Ready.zp\George Harrison – Somewhere In England (7599-26614-2).wav

Peak level 100.0 %
Extraction speed 14.2 X
Range quality 100.0 %
Test CRC 6CF67006
Copy CRC 6CF67006
Copy OK

No errors occurred

AccurateRip summary

Track 1 accurately ripped (confidence 6) [3AD3DB23] (AR v1)
Track 2 accurately ripped (confidence 6) [6EBD8C4E] (AR v1)
Track 3 accurately ripped (confidence 6) [DF359928] (AR v1)
Track 4 accurately ripped (confidence 6) [475E8B9D] (AR v1)
Track 5 accurately ripped (confidence 6) [676A9A8F] (AR v1)
Track 6 accurately ripped (confidence 6) [9C03B3E1] (AR v1)
Track 7 accurately ripped (confidence 6) [8A845930] (AR v1)
Track 8 accurately ripped (confidence 6) [341551D0] (AR v1)
Track 9 accurately ripped (confidence 6) [E94B4B47] (AR v1)
Track 10 accurately ripped (confidence 6) [5DC9E887] (AR v1)

All tracks accurately ripped

End of status report

==== Log checksum 8CBAC8248FD2A7659E47C44DCA177D7FEC9BC20D04AC3E0B502E0A36207E3FFC ====

REM GENRE Rock
REM DATE 1981
REM DISCID 8009310A
REM COMMENT “ExactAudioCopy v1.0b3”
PERFORMER “George Harrison”
TITLE “Somewhere In England (7599-26614-2)”
FILE “George Harrison – Somewhere In England (7599-26614-2).flac” WAVE
TRACK 01 AUDIO
TITLE “Blood from a Clone”
PERFORMER “George Harrison”
INDEX 01 00:00:00
TRACK 02 AUDIO
TITLE “Unconsciousness Rules”
PERFORMER “George Harrison”
INDEX 00 04:02:32
INDEX 01 04:04:15
TRACK 03 AUDIO
TITLE “Life Itself”
PERFORMER “George Harrison”
INDEX 00 07:08:32
INDEX 01 07:10:17
TRACK 04 AUDIO
TITLE “All Those Years Ago”
PERFORMER “George Harrison”
INDEX 00 11:34:67
INDEX 01 11:36:67
TRACK 05 AUDIO
TITLE “Baltimore Oriole”
PERFORMER “George Harrison”
INDEX 00 15:22:30
INDEX 01 15:24:15
TRACK 06 AUDIO
TITLE “Teardrops”
PERFORMER “George Harrison”
INDEX 00 19:21:42
INDEX 01 19:23:60
TRACK 07 AUDIO
TITLE “That Which I Have Lost”
PERFORMER “George Harrison”
INDEX 00 23:31:10
INDEX 01 23:33:35
TRACK 08 AUDIO
TITLE “Writing’s on the Wall”
PERFORMER “George Harrison”
INDEX 00 27:19:27
INDEX 01 27:20:07
TRACK 09 AUDIO
TITLE “Hong Kong Blues”
PERFORMER “George Harrison”
INDEX 00 31:19:65
INDEX 01 31:21:57
TRACK 10 AUDIO
TITLE “Save the World”
PERFORMER “George Harrison”
INDEX 00 34:17:37
INDEX 01 34:18:05


Leave a Reply

Your email address will not be published. Required fields are marked *

Enter the text from the image below
 

This site uses Akismet to reduce spam. Learn how your comment data is processed.