George Harrison – Somewhere In England (Japanese Edition)




[Total: 0    Average: 0/5]

Artist: George Harrison
Year: 1981/1991
Genre: Rock
Notes: Discogs
Add. Notes: Japanese Edition
Cover incl.: Yes
Encoder: FLAC
Bitrate: ~800 kBit/s (44.1 kHz/16 Bit/s)
Log & Cue incl.: Yes/Yes
Size: 258,8 MB
Password: “slam” (without ” “)


All Downloads/Hosters are compatible

Download 1
KatFile.com
Turbobit.net
FileFactory.com
Rapidgator.net
Download 2
KatFile.com
Turbobit.net
FileFactory.com
Rapidgator.net
Download 3
KatFile.com
Turbobit.net
FileFactory.com
Rapidgator.net

Tracklist:

1 Blood From A Clone 3:58
2 Unconsciousness Rules 3:04
3 Life Itself 4:24
4 All Those Years Ago 3:43
5 Baltimore Oriole 3:57
6 Teardrops 4:04
7 That Which I Have Lost 3:42
8 Writing's On The Wall 3:57
9 Hong Kong Blues 2:54
10 Save The World 4:56

EAC-Log, CUE-Sheed & NFO:

Click to open spoiler
Exact Audio Copy V0.99 prebeta 5 from 4. May 2009

Отчёт EAC об извлечении, выполненном 26. августа 2014, 19:40

George Harrison / Somewhere In England

Дисковод: SONY BD RW BDX-S500U Adapter: 1 ID: 0

Режим чтения : Достоверность
Использование точного потока : Да
Отключение кэша аудио : Да
Использование указателей C2 : Нет

Коррекция смещения при чтении : 48
Способность читать области Lead-in и Lead-out : Нет
Заполнение пропущенных сэмплов тишиной : Да
Удаление блоков с тишиной в начале и конце : Нет
При вычислениях CRC использовались нулевые сэмплы : Да
Интерфейс : Встроенный Win32-интерфейс для Win NT/2000

Выходной формат : Пользовательский кодировщик
Выбранный битрейт : 128 kBit/s
Качество : Высокий
Добавление ID3-тэга : Нет
Утилита сжатия : C:\Program Files (x86)\FLAC\flac.exe

TOC извлечённого CD

Трек | Старт | Длительность | Начальный сектор | Конечный сектор
———————————————————————
1 | 0:00.32 | 4:03.70 | 32 | 18326
2 | 4:04.27 | 3:06.00 | 18327 | 32276
3 | 7:10.27 | 4:26.50 | 32277 | 52276
4 | 11:37.02 | 3:47.23 | 52277 | 69324
5 | 15:24.25 | 3:59.50 | 69325 | 87299
6 | 19:24.00 | 4:09.47 | 87300 | 106021
7 | 23:33.47 | 3:46.50 | 106022 | 123021
8 | 27:20.22 | 4:01.45 | 123022 | 141141
9 | 31:21.67 | 2:56.23 | 141142 | 154364
10 | 34:18.15 | 4:56.45 | 154365 | 176609

Характеристики диапазона извлечения и сообщения об ошибках

Выбранный диапазон

Имя файла F:\Harrison_CDS\Somewhere in England_JapanCD\George Harrison – Somewhere In England.wav

Пиковый уровень 100.0 %
Качество диапазона 100.0 %
CRC теста 8AA683E1
CRC копии 8AA683E1
Копирование… OK

Ошибок не произошло

AccurateRip: сводка

Трек 1 точность не определена (достоверность 2) [2683C853], AccurateRip вернул [A766C2D8]
Трек 2 точность не определена (достоверность 2) [88AA578E], AccurateRip вернул [0AD1C97F]
Трек 3 точность не определена (достоверность 2) [30CB2988], AccurateRip вернул [099168CA]
Трек 4 точность не определена (достоверность 2) [C4A7C41D], AccurateRip вернул [C342EB9F]
Трек 5 точность не определена (достоверность 2) [1ED3B01F], AccurateRip вернул [9D55C714]
Трек 6 точность не определена (достоверность 2) [0E85DBDD], AccurateRip вернул [56082B23]
Трек 7 точность не определена (достоверность 2) [6857C230], AccurateRip вернул [D17A109E]
Трек 8 точность не определена (достоверность 2) [221F14D0], AccurateRip вернул [A3F194B4]
Трек 9 точность не определена (достоверность 2) [846C1867], AccurateRip вернул [F2A199FB]
Трек 10 точность не определена (достоверность 2) [83CEB895], AccurateRip вернул [DB0ED8F9]

Ни один трек не прошёл проверки на точность
В вашей базе может быть иной вариант штамповки диска

Конец отчёта

REM GENRE Rock
REM DATE 1981
REM DISCID 8209320A
REM COMMENT “ExactAudioCopy v0.99pb5”
PERFORMER “George Harrison”
TITLE “Somewhere In England”
FILE “George Harrison – Somewhere In England.flac” WAVE
TRACK 01 AUDIO
TITLE “Blood from a Clone”
PERFORMER “George Harrison”
INDEX 00 00:00:00
INDEX 01 00:00:32
TRACK 02 AUDIO
TITLE “Unconsciousness Rules”
PERFORMER “George Harrison”
INDEX 00 04:02:72
INDEX 01 04:04:27
TRACK 03 AUDIO
TITLE “Life Itself”
PERFORMER “George Harrison”
INDEX 00 07:08:72
INDEX 01 07:10:27
TRACK 04 AUDIO
TITLE “All Those Years Ago”
PERFORMER “George Harrison”
INDEX 00 11:35:32
INDEX 01 11:37:02
TRACK 05 AUDIO
TITLE “Baltimore Oriole”
PERFORMER “George Harrison”
INDEX 00 15:22:67
INDEX 01 15:24:25
TRACK 06 AUDIO
TITLE “Teardrops”
PERFORMER “George Harrison”
INDEX 00 19:22:07
INDEX 01 19:24:00
TRACK 07 AUDIO
TITLE “That Which I Have Lost”
PERFORMER “George Harrison”
INDEX 00 23:31:50
INDEX 01 23:33:47
TRACK 08 AUDIO
TITLE “Writing’s on the Wall”
PERFORMER “George Harrison”
INDEX 00 27:19:67
INDEX 01 27:20:22
TRACK 09 AUDIO
TITLE “Hong Kong Blues”
PERFORMER “George Harrison”
INDEX 00 31:20:30
INDEX 01 31:21:67
TRACK 10 AUDIO
TITLE “Save the World”
PERFORMER “George Harrison”
INDEX 00 34:18:00
INDEX 01 34:18:15


Spread the Download

Leave a Reply

Your email address will not be published. Required fields are marked *

Enter the text from the image below
 

This site uses Akismet to reduce spam. Learn how your comment data is processed.