George Harrison – Living In The Material World (Remastered)




No Cover available

Artist: George Harrison
Year: 2006
Genre: Rock
Notes: Discogs
Add. Notes: Remastered
Watch Songs on: YouTube
Cover incl.: Yes
Encoder: FLAC
Bitrate: ~900 kBit/s (44.1 kHz/16 Bit/s)
Log & Cue incl.: Yes/Yes
Size: 390,23 MB
Password: “slam” (without ” “)


All Downloads/Hosters are compatible

Download 1
KatFile.com
Turbobit.net
FileFactory.com
Rapidgator.net
Download 2
KatFile.com
Turbobit.net
FileFactory.com
Rapidgator.net

Tracklist:

1 Give Me Love (Give Me Peace On Earth) 
2 Sue Me, Sue You Blues 
3 The Light That Has Lighted The World 
4 Don't Let Me Wait Too Long 
5 Who Can See It 
6 Living In The Material World 
7 The Lord Loves The One (That Loves The Lord) 
8 Be Here Now 
9 Try Some Buy Some 
10 The Day The World Gets 'Round 
11 That Is All 

Bonus Tracks
12 Deep Blue 
13 Miss O'Dell

EAC-Log, CUE-Sheed & NFO:

Click to open spoiler
Exact Audio Copy V1.0 beta 3 from 29. August 2011

EAC extraction logfile from 27. July 2014, 11:16

George Harrison / Living In The Material World (0946 3 66899 2 0)

Used drive : PLEXTOR DVDR PX-891SA Adapter: 3 ID: 0

Read mode : Secure
Utilize accurate stream : Yes
Defeat audio cache : Yes
Make use of C2 pointers : No

Read offset correction : 6
Overread into Lead-In and Lead-Out : No
Fill up missing offset samples with silence : Yes
Delete leading and trailing silent blocks : No
Null samples used in CRC calculations : Yes
Used interface : Native Win32 interface for Win NT & 2000

Used output format : User Defined Encoder
Selected bitrate : 1024 kBit/s
Quality : High
Add ID3 tag : No
Command line compressor : C:\Program Files\Exact Audio Copy\Flac\flac.exe
Additional command line options : -V -8 -T “Genre=%genre%” -T “Artist=%artist%” -T “Title=%title%” -T “Album=%albumtitle%” -T “Date=%year%” -T “Tracknumber=%tracknr%” -T “Comment=%comment%” %source%

TOC of the extracted CD

Track | Start | Length | Start sector | End sector
———————————————————
1 | 0:00.00 | 3:38.64 | 0 | 16413
2 | 3:38.64 | 4:50.25 | 16414 | 38188
3 | 8:29.14 | 3:32.24 | 38189 | 54112
4 | 12:01.38 | 2:58.51 | 54113 | 67513
5 | 15:00.14 | 3:53.40 | 67514 | 85028
6 | 18:53.54 | 5:30.17 | 85029 | 109795
7 | 24:23.71 | 4:37.12 | 109796 | 130582
8 | 29:01.08 | 4:12.35 | 130583 | 149517
9 | 33:13.43 | 4:10.60 | 149518 | 168327
10 | 37:24.28 | 2:55.07 | 168328 | 181459
11 | 40:19.35 | 3:51.15 | 181460 | 198799
12 | 44:10.50 | 3:47.29 | 198800 | 215853
13 | 47:58.04 | 2:33.16 | 215854 | 227344

Range status and errors

Selected range

Filename H:\dafnaplus\1973 George Harrison – Living In The Material World\George Harrison – Living In The Material World (0946 3 66899 2 0).wav

Peak level 98.6 %
Extraction speed 8.6 X
Range quality 100.0 %
Test CRC 4F5346A7
Copy CRC 4F5346A7
Copy OK

No errors occurred

AccurateRip summary

Track 1 accurately ripped (confidence 48) [7EED708B] (AR v2)
Track 2 accurately ripped (confidence 48) [4A177D40] (AR v2)
Track 3 accurately ripped (confidence 48) [0BE9566F] (AR v2)
Track 4 accurately ripped (confidence 49) [8E6AD799] (AR v2)
Track 5 accurately ripped (confidence 48) [04C46665] (AR v2)
Track 6 accurately ripped (confidence 48) [B0E76DA7] (AR v2)
Track 7 accurately ripped (confidence 48) [E297D9C3] (AR v2)
Track 8 accurately ripped (confidence 48) [1E06B496] (AR v2)
Track 9 accurately ripped (confidence 48) [23F603CF] (AR v2)
Track 10 accurately ripped (confidence 48) [6F76C9DA] (AR v2)
Track 11 accurately ripped (confidence 48) [4616D6C2] (AR v2)
Track 12 accurately ripped (confidence 47) [7C74CDA2] (AR v2)
Track 13 accurately ripped (confidence 47) [AAB86BFB] (AR v2)

All tracks accurately ripped

End of status report

==== Log checksum 5D9113DB8E5161ABC3976CA02E24FAE201B36F4B190B6CE4E112C3CA54C5D1A9 ====

REM GENRE Rock
REM DATE 2006
REM DISCID 9D0BD70D
REM COMMENT “ExactAudioCopy v1.0b3”
PERFORMER “George Harrison”
TITLE “Living In The Material World (0946 3 66899 2 0)”
FILE “George Harrison – Living In The Material World (0946 3 66899 2 0).flac” WAVE
TRACK 01 AUDIO
TITLE “Give Me Love (Give Me Peace On Earth)”
PERFORMER “George Harrison”
INDEX 01 00:00:00
TRACK 02 AUDIO
TITLE “Sue Me, Sue You Blues”
PERFORMER “George Harrison”
INDEX 00 03:35:37
INDEX 01 03:38:64
TRACK 03 AUDIO
TITLE “The Light That Has Lighted The World”
PERFORMER “George Harrison”
INDEX 00 08:25:06
INDEX 01 08:29:14
TRACK 04 AUDIO
TITLE “Don’t Let Me Wait Too Long”
PERFORMER “George Harrison”
INDEX 00 11:58:26
INDEX 01 12:01:38
TRACK 05 AUDIO
TITLE “Who Can See It”
PERFORMER “George Harrison”
INDEX 00 14:57:68
INDEX 01 15:00:14
TRACK 06 AUDIO
TITLE “Living In The Material World”
PERFORMER “George Harrison”
INDEX 00 18:50:02
INDEX 01 18:53:54
TRACK 07 AUDIO
TITLE “The Lord Loves The One (That Loves The Lord)”
PERFORMER “George Harrison”
INDEX 00 24:22:52
INDEX 01 24:23:71
TRACK 08 AUDIO
TITLE “Be Here Now”
PERFORMER “George Harrison”
INDEX 00 28:57:15
INDEX 01 29:01:08
TRACK 09 AUDIO
TITLE “Try Some Buy Some”
PERFORMER “George Harrison”
INDEX 00 33:09:44
INDEX 01 33:13:43
TRACK 10 AUDIO
TITLE “The Day The World Gets ‘Round”
PERFORMER “George Harrison”
INDEX 00 37:21:45
INDEX 01 37:24:28
TRACK 11 AUDIO
TITLE “That Is All”
PERFORMER “George Harrison”
INDEX 00 40:16:07
INDEX 01 40:19:35
TRACK 12 AUDIO
TITLE “Deep Blue (Bonus Track)”
PERFORMER “George Harrison”
INDEX 00 44:01:55
INDEX 01 44:10:50
TRACK 13 AUDIO
TITLE “Miss O’Dell (Bonus Track)”
PERFORMER “George Harrison”
INDEX 00 47:55:54
INDEX 01 47:58:04


Leave a Reply

Your email address will not be published. Required fields are marked *

Enter the text from the image below
 

This site uses Akismet to reduce spam. Learn how your comment data is processed.