George Harrison – Living In The Material World (Reissue)




No Cover available

Artist: George Harrison
Year: 1973/1992
Genre: Rock
Notes: Discogs
Add. Notes: Reissue
Cover incl.: Yes
Encoder: FLAC
Bitrate: ~700 kBit/s (44.1 kHz/16 Bit/s)
Log & Cue incl.: Yes/Yes
Size: 404,8 MB
Password: “slam” (without ” “)


All Downloads/Hosters are compatible

Download 1
KatFile.com
Turbobit.net
FileFactory.com
Rapidgator.net
Download 2
KatFile.com
Turbobit.net
FileFactory.com
Rapidgator.net

Tracklist:

1 Give Me Love (Give Me Peace On Earth) 3:36
2 Sue Me, Sue You Blues 4:48
3 The Light That Has Lighted The World 3:30
4 Don't Let Me Wait Too Long 2:56
5 Who Can See It 3:52
6 Living In The Material World 5:30
7 The Lord Loves The One (That Loves The Lord) 4:34
8 Be Here Now 4:09
9 Try Some Buy Some 4:08
10 The Day The World Gets 'Round 2:52
11 That Is All 3:43

EAC-Log, CUE-Sheed & NFO:

Click to open spoiler
Exact Audio Copy V1.0 beta 3 from 29. August 2011

EAC extraction logfile from 21. August 2014, 10:27

George Harrison / Living In The Material World (CDP 7 94110 2)

Used drive : SONY CD-RW CRX210E1 Adapter: 0 ID: 1

Read mode : Secure
Utilize accurate stream : Yes
Defeat audio cache : Yes
Make use of C2 pointers : No

Read offset correction : 6
Overread into Lead-In and Lead-Out : No
Fill up missing offset samples with silence : Yes
Delete leading and trailing silent blocks : No
Null samples used in CRC calculations : Yes
Used interface : Native Win32 interface for Win NT & 2000

Used output format : User Defined Encoder
Selected bitrate : 768 kBit/s
Quality : High
Add ID3 tag : No
Command line compressor : D:\ПРОГИ\Flac\flac.exe
Additional command line options : -V -8 %source%

TOC of the extracted CD

Track | Start | Length | Start sector | End sector
———————————————————
1 | 0:00.00 | 3:37.45 | 0 | 16319
2 | 3:37.45 | 4:49.45 | 16320 | 38039
3 | 8:27.15 | 3:31.70 | 38040 | 53934
4 | 11:59.10 | 2:58.45 | 53935 | 67329
5 | 14:57.55 | 3:53.35 | 67330 | 84839
6 | 18:51.15 | 5:31.67 | 84840 | 109731
7 | 24:23.07 | 4:35.28 | 109732 | 130384
8 | 28:58.35 | 4:10.47 | 130385 | 149181
9 | 33:09.07 | 4:09.20 | 149182 | 167876
10 | 37:18.27 | 2:53.73 | 167877 | 180924
11 | 40:12.25 | 3:43.02 | 180925 | 197651

Range status and errors

Selected range

Filename K:\Ready.zp\George Harrison – Living In The Material World (CDP 7 94110 2).wav

Peak level 100.0 %
Extraction speed 15.0 X
Range quality 100.0 %
Test CRC 32C47756
Copy CRC 32C47756
Copy OK

No errors occurred

AccurateRip summary

Track 1 accurately ripped (confidence 10) [CCC8E88A] (AR v2)
Track 2 accurately ripped (confidence 10) [991C6C3E] (AR v2)
Track 3 accurately ripped (confidence 10) [40757AE0] (AR v2)
Track 4 accurately ripped (confidence 11) [CF1D2BA1] (AR v2)
Track 5 accurately ripped (confidence 10) [A301E73E] (AR v2)
Track 6 accurately ripped (confidence 10) [3FC95FC2] (AR v2)
Track 7 accurately ripped (confidence 10) [ED34028F] (AR v2)
Track 8 accurately ripped (confidence 10) [837EAB51] (AR v2)
Track 9 accurately ripped (confidence 10) [3ECD91CD] (AR v2)
Track 10 accurately ripped (confidence 10) [A80B5D6E] (AR v2)
Track 11 accurately ripped (confidence 10) [5A41C303] (AR v2)

All tracks accurately ripped

End of status report

==== Log checksum 92A33E5CDF5666F15552994CC953893397FCB926F87CBAF228F7FCD32D1025E8 ====

REM GENRE Rock
REM DATE 1973
REM DISCID 8B0A4B0B
REM COMMENT “ExactAudioCopy v1.0b3”
PERFORMER “George Harrison”
TITLE “Living In The Material World (CDP 7 94110 2)”
FILE “George Harrison – Living In The Material World (CDP 7 94110 2).flac” WAVE
TRACK 01 AUDIO
TITLE “Give Me Love (Give Me Peace On Earth)”
PERFORMER “George Harrison”
INDEX 01 00:00:00
TRACK 02 AUDIO
TITLE “Sue Me, Sue You Blues”
PERFORMER “George Harrison”
INDEX 00 03:35:65
INDEX 01 03:37:45
TRACK 03 AUDIO
TITLE “The Light That Has Lighted The World”
PERFORMER “George Harrison”
INDEX 00 08:25:50
INDEX 01 08:27:15
TRACK 04 AUDIO
TITLE “Don’t Let Me Wait Too Long”
PERFORMER “George Harrison”
INDEX 00 11:57:57
INDEX 01 11:59:10
TRACK 05 AUDIO
TITLE “Who Can See It”
PERFORMER “George Harrison”
INDEX 00 14:55:57
INDEX 01 14:57:55
TRACK 06 AUDIO
TITLE “Living In The Material World”
PERFORMER “George Harrison”
INDEX 00 18:49:52
INDEX 01 18:51:15
TRACK 07 AUDIO
TITLE “The Lord Loves The One (That Loves The Lord)”
PERFORMER “George Harrison”
INDEX 00 24:21:52
INDEX 01 24:23:07
TRACK 08 AUDIO
TITLE “Be Here Now”
PERFORMER “George Harrison”
INDEX 00 28:57:27
INDEX 01 28:58:35
TRACK 09 AUDIO
TITLE “Try Some Buy Some”
PERFORMER “George Harrison”
INDEX 00 33:07:50
INDEX 01 33:09:07
TRACK 10 AUDIO
TITLE “The Day The World Gets ‘Round”
PERFORMER “George Harrison”
INDEX 00 37:17:02
INDEX 01 37:18:27
TRACK 11 AUDIO
TITLE “That Is All”
PERFORMER “George Harrison”
INDEX 00 40:11:05
INDEX 01 40:12:25


Leave a Reply

Your email address will not be published. Required fields are marked *

Enter the text from the image below
 

This site uses Akismet to reduce spam. Learn how your comment data is processed.