George Harrison – Living in Material World (Reissue)




[Total: 0    Average: 0/5]

Artist: George Harrison
Year: 1973/1991
Genre: Rock
Notes: Discogs
Add. Notes: Reissue
Cover incl.: Yes
Encoder: FLAC
Bitrate: ~700 kBit/s (44.1 kHz/16 Bit/s)
Log & Cue incl.: Yes
Size: 247,5 MB
Password: “slam” (without ” “)


All Downloads/Hosters are compatible

Download 1
KatFile.com
Turbobit.net
FileFactory.com
Rapidgator.net
Download 2
KatFile.com
Turbobit.net
FileFactory.com
Rapidgator.net

Tracklist:

1 Give Me Love (Give Me Peace On Earth) 3:36
2 Sue Me, Sue You Blues 4:48
3 The Light That Has Lighted The World 3:30
4 Don't Let Me Wait Too Long 2:56
5 Who Can See It 3:52
6 Living In The Material World 5:30
7 The Lord Loves The One (That Loves The Lord) 4:34
8 Be Here Now 4:09
9 Try Some Buy Some 4:08
10 The Day The World Gets 'Round 2:52
11 That Is All 3:43

EAC-Log, CUE-Sheed & NFO:

Click to open spoiler
Exact Audio Copy V0.99 prebeta 5 from 4. May 2009

Отчёт EAC об извлечении, выполненном 6. января 2015, 19:10

George Harrison / Living In The Material World

Дисковод: SONY BD RW BDX-S500U Adapter: 1 ID: 0

Режим чтения : Достоверность
Использование точного потока : Да
Отключение кэша аудио : Да
Использование указателей C2 : Нет

Коррекция смещения при чтении : 48
Способность читать области Lead-in и Lead-out : Нет
Заполнение пропущенных сэмплов тишиной : Да
Удаление блоков с тишиной в начале и конце : Нет
При вычислениях CRC использовались нулевые сэмплы : Да
Интерфейс : Встроенный Win32-интерфейс для Win NT/2000

Выходной формат : Внутренние WAV-операции
Формат сэмплов : 44.100 Гц; 16 бит; стерео

TOC извлечённого CD

Трек | Старт | Длительность | Начальный сектор | Конечный сектор
———————————————————————
1 | 0:00.33 | 3:38.12 | 33 | 16394
2 | 3:38.45 | 4:49.43 | 16395 | 38112
3 | 8:28.13 | 3:31.67 | 38113 | 54004
4 | 12:00.05 | 2:58.53 | 54005 | 67407
5 | 14:58.58 | 3:53.32 | 67408 | 84914
6 | 18:52.15 | 5:31.68 | 84915 | 109807
7 | 24:24.08 | 4:35.27 | 109808 | 130459
8 | 28:59.35 | 4:10.48 | 130460 | 149257
9 | 33:10.08 | 4:09.22 | 149258 | 167954
10 | 37:19.30 | 2:53.70 | 167955 | 180999
11 | 40:13.25 | 3:43.13 | 181000 | 197737

Характеристики диапазона извлечения и сообщения об ошибках

Выбранный диапазон

Имя файла F:\Harrison_CDS\Living in the Material World\George Harrison – Living In The Material World.wav

Пиковый уровень 100.0 %
Качество диапазона 100.0 %
CRC теста DFF0EBCE
CRC копии DFF0EBCE
Копирование… OK

Ошибок не произошло

AccurateRip: сводка

Трек 1 точное извлечение (доверие 4) [A13063F8]
Трек 2 точное извлечение (доверие 3) [DC7E582C]
Трек 3 точное извлечение (доверие 3) [3DB4096D]
Трек 4 точное извлечение (доверие 3) [3239CEA7]
Трек 5 точное извлечение (доверие 3) [03965E0A]
Трек 6 точное извлечение (доверие 3) [8BC599D8]
Трек 7 точное извлечение (доверие 3) [EAB95952]
Трек 8 точное извлечение (доверие 3) [877E23BE]
Трек 9 точное извлечение (доверие 4) [C8428232]
Трек 10 точное извлечение (доверие 3) [0405B46F]
Трек 11 точное извлечение (доверие 3) [0426A77A]

Все треки извлечены точно

Конец отчёта

REM GENRE Rock
REM DATE 1973
REM DISCID 710A4C0B
REM COMMENT “ExactAudioCopy v0.99pb5”
PERFORMER “George Harrison”
TITLE “Living In The Material World”
FILE “George Harrison – Living In The Material World.flac” WAVE
TRACK 01 AUDIO
TITLE “Give Me Love (Give Me Peace On Earth)”
PERFORMER “George Harrison”
INDEX 00 00:00:00
INDEX 01 00:00:33
TRACK 02 AUDIO
TITLE “Sue Me, Sue You Blues”
PERFORMER “George Harrison”
INDEX 00 03:36:68
INDEX 01 03:38:45
TRACK 03 AUDIO
TITLE “The Light That Has Lighted The World”
PERFORMER “George Harrison”
INDEX 00 08:26:60
INDEX 01 08:28:13
TRACK 04 AUDIO
TITLE “Don’t Let Me Wait Too Long”
PERFORMER “George Harrison”
INDEX 00 11:58:65
INDEX 01 12:00:05
TRACK 05 AUDIO
TITLE “Who Can See It”
PERFORMER “George Harrison”
INDEX 00 14:56:68
INDEX 01 14:58:58
TRACK 06 AUDIO
TITLE “Living In The Material World”
PERFORMER “George Harrison”
INDEX 00 18:50:63
INDEX 01 18:52:15
TRACK 07 AUDIO
TITLE “The Lord Loves The One (That Loves The Lord)”
PERFORMER “George Harrison”
INDEX 00 24:22:55
INDEX 01 24:24:08
TRACK 08 AUDIO
TITLE “Be Here Now”
PERFORMER “George Harrison”
INDEX 00 28:58:28
INDEX 01 28:59:35
TRACK 09 AUDIO
TITLE “Try Some Buy Some”
PERFORMER “George Harrison”
INDEX 00 33:08:58
INDEX 01 33:10:08
TRACK 10 AUDIO
TITLE “The Day The World Gets ‘Round”
PERFORMER “George Harrison”
INDEX 00 37:18:15
INDEX 01 37:19:30
TRACK 11 AUDIO
TITLE “That Is All”
PERFORMER “George Harrison”
INDEX 00 40:12:18
INDEX 01 40:13:25


Spread the Download

Leave a Reply

Your email address will not be published. Required fields are marked *

Enter the text from the image below
 

This site uses Akismet to reduce spam. Learn how your comment data is processed.