George Harrison – Let It Roll: Songs By George Harrison (Remastered)




Artist: George Harrison
Year: 2009
Genre: Rock
Notes: Discogs
Add. Notes: Remastered
Cover incl.: Yes
Encoder: FLAC
Bitrate: ~900 kBit/s (44.1 kHz/16 Bit/s)
Log & Cue incl.: Yes/Yes
Size: 623,3 MB
Password: “slam” (without ” “)


All Downloads/Hosters are compatible

Download 1
KatFile.com
Turbobit.net
FileFactory.com
Rapidgator.net
Download 2
KatFile.com
Turbobit.net
FileFactory.com
Rapidgator.net

Tracklist:

1 Got My Mind Set On You 3:52
2 Give Me Love (Give Me Peace On Earth) 3:35
3 Ballad Of Sir Frankie Crisp (Let It Roll) 3:48
4 My Sweet Lord 4:40
5 While My Guitar Gently Weeps 4:46
6 All Things Must Pass 3:46
7 Any Road 3:51
8 This Is Love 3:47
9 All Those Years Ago 3:46
10 Marwa Blues 3:41
11 What Is Life 4:24
12 Rising Sun 5:27
13 When We Was Fab 3:51
14 Something 3:10
15 Blow Away 3:59
16 Cheer Down 4:06
17 Here Comes The Sun 2:54
18 I Don't Want To Do It 2:54
19 Isn't It A Pity 7:07

EAC-Log, CUE-Sheed & NFO:

Click to open spoiler
Exact Audio Copy V1.0 beta 3 from 29. August 2011

EAC extraction logfile from 15. August 2014, 13:58

George Harrison / Let It Roll: Songs By George Harrison (50999 965019 24)

Used drive : PLEXTOR DVDR PX-891SA Adapter: 3 ID: 0

Read mode : Secure
Utilize accurate stream : Yes
Defeat audio cache : Yes
Make use of C2 pointers : No

Read offset correction : 6
Overread into Lead-In and Lead-Out : No
Fill up missing offset samples with silence : Yes
Delete leading and trailing silent blocks : No
Null samples used in CRC calculations : Yes
Used interface : Native Win32 interface for Win NT & 2000

Used output format : User Defined Encoder
Selected bitrate : 1024 kBit/s
Quality : High
Add ID3 tag : No
Command line compressor : C:\Program Files\Exact Audio Copy\Flac\flac.exe
Additional command line options : -V -8 -T “Genre=%genre%” -T “Artist=%artist%” -T “Title=%title%” -T “Album=%albumtitle%” -T “Date=%year%” -T “Tracknumber=%tracknr%” -T “Comment=%comment%” %source%

TOC of the extracted CD

Track | Start | Length | Start sector | End sector
———————————————————
1 | 0:00.00 | 3:52.47 | 0 | 17446
2 | 3:52.47 | 3:35.20 | 17447 | 33591
3 | 7:27.67 | 3:48.49 | 33592 | 50740
4 | 11:16.41 | 4:40.45 | 50741 | 71785
5 | 15:57.11 | 4:46.55 | 71786 | 93290
6 | 20:43.66 | 3:46.69 | 93291 | 110309
7 | 24:30.60 | 3:52.00 | 110310 | 127709
8 | 28:22.60 | 3:47.42 | 127710 | 144776
9 | 32:10.27 | 3:46.33 | 144777 | 161759
10 | 35:56.60 | 3:41.21 | 161760 | 178355
11 | 39:38.06 | 4:24.74 | 178356 | 198229
12 | 44:03.05 | 5:27.16 | 198230 | 222770
13 | 49:30.21 | 3:51.37 | 222771 | 240132
14 | 53:21.58 | 3:10.07 | 240133 | 254389
15 | 56:31.65 | 3:59.17 | 254390 | 272331
16 | 60:31.07 | 4:06.10 | 272332 | 290791
17 | 64:37.17 | 2:54.51 | 290792 | 303892
18 | 67:31.68 | 2:54.46 | 303893 | 316988
19 | 70:26.39 | 7:07.35 | 316989 | 349048

Range status and errors

Selected range

Filename H:\dafnaplus\1970 – 2002 George Harrison\Let It Roll – Songs By George Harrison\George Harrison – Let It Roll- Songs By George Harrison (50999 965019 24).wav

Peak level 100.0 %
Extraction speed 10.2 X
Range quality 99.9 %
Test CRC D230C037
Copy CRC D230C037
Copy OK

No errors occurred

AccurateRip summary

Track 1 accurately ripped (confidence 46) [60E123FF] (AR v2)
Track 2 accurately ripped (confidence 46) [815E3DD5] (AR v2)
Track 3 accurately ripped (confidence 46) [0743B46C] (AR v2)
Track 4 accurately ripped (confidence 46) [78901CBA] (AR v2)
Track 5 accurately ripped (confidence 46) [6CECF13E] (AR v2)
Track 6 accurately ripped (confidence 46) [70F7655F] (AR v2)
Track 7 accurately ripped (confidence 46) [010A4151] (AR v2)
Track 8 accurately ripped (confidence 46) [C90E29D6] (AR v2)
Track 9 accurately ripped (confidence 46) [72D1020F] (AR v2)
Track 10 accurately ripped (confidence 47) [06DEA3AC] (AR v2)
Track 11 accurately ripped (confidence 46) [C1A103EA] (AR v2)
Track 12 accurately ripped (confidence 45) [5EB503FD] (AR v2)
Track 13 accurately ripped (confidence 46) [D1AA1717] (AR v2)
Track 14 accurately ripped (confidence 46) [BA848359] (AR v2)
Track 15 accurately ripped (confidence 46) [2FF3A2B5] (AR v2)
Track 16 accurately ripped (confidence 46) [4194B933] (AR v2)
Track 17 accurately ripped (confidence 45) [59FD6EDB] (AR v2)
Track 18 accurately ripped (confidence 46) [2709087A] (AR v2)
Track 19 accurately ripped (confidence 44) [B671F966] (AR v2)

All tracks accurately ripped

End of status report

==== Log checksum 27BD933CE0697FFE05D951DB2B37F14F612114416867A65423158D2A43B7EB67 ====

REM GENRE Rock
REM DATE 2009
REM DISCID 20122D13
REM COMMENT “ExactAudioCopy v1.0b3”
PERFORMER “George Harrison”
TITLE “Let It Roll: Songs By George Harrison (50999 965019 24)”
FILE “George Harrison – Let It Roll- Songs By George Harrison (50999 965019 24).flac” WAVE
TRACK 01 AUDIO
TITLE “Got My Mind Set On You”
PERFORMER “George Harrison”
FLAGS DCP
INDEX 01 00:00:00
TRACK 02 AUDIO
TITLE “Give Me Love (Give Me Peace On Earth)”
PERFORMER “George Harrison”
FLAGS DCP
INDEX 01 03:52:47
TRACK 03 AUDIO
TITLE “Ballad Of Sir Frankie Crisp (Let It Roll)”
PERFORMER “George Harrison”
FLAGS DCP
INDEX 01 07:27:67
TRACK 04 AUDIO
TITLE “My Sweet Lord”
PERFORMER “George Harrison”
FLAGS DCP
INDEX 01 11:16:41
TRACK 05 AUDIO
TITLE “While My Guitar Gently Weeps (Live)”
PERFORMER “George Harrison”
FLAGS DCP
INDEX 01 15:57:11
TRACK 06 AUDIO
TITLE “All Things Must Pass”
PERFORMER “George Harrison”
FLAGS DCP
INDEX 01 20:43:66
TRACK 07 AUDIO
TITLE “Any Road”
PERFORMER “George Harrison”
FLAGS DCP
INDEX 01 24:30:60
TRACK 08 AUDIO
TITLE “This Is Love”
PERFORMER “George Harrison”
FLAGS DCP
INDEX 01 28:22:60
TRACK 09 AUDIO
TITLE “All Those Years Ago”
PERFORMER “George Harrison”
FLAGS DCP
INDEX 01 32:10:27
TRACK 10 AUDIO
TITLE “Marwa Blues”
PERFORMER “George Harrison”
FLAGS DCP
INDEX 01 35:56:60
TRACK 11 AUDIO
TITLE “What Is Life”
PERFORMER “George Harrison”
FLAGS DCP
INDEX 01 39:38:06
TRACK 12 AUDIO
TITLE “Rising Sun”
PERFORMER “George Harrison”
FLAGS DCP
INDEX 01 44:03:05
TRACK 13 AUDIO
TITLE “When We Was Fab”
PERFORMER “George Harrison”
FLAGS DCP
INDEX 01 49:30:21
TRACK 14 AUDIO
TITLE “Something (Live)”
PERFORMER “George Harrison”
FLAGS DCP
INDEX 01 53:21:58
TRACK 15 AUDIO
TITLE “Blow Away”
PERFORMER “George Harrison”
FLAGS DCP
INDEX 01 56:31:65
TRACK 16 AUDIO
TITLE “Cheer Down”
PERFORMER “George Harrison”
FLAGS DCP
INDEX 01 60:31:07
TRACK 17 AUDIO
TITLE “Here Comes The Sun (Live)”
PERFORMER “George Harrison”
FLAGS DCP
INDEX 01 64:37:17
TRACK 18 AUDIO
TITLE “I Don’t Want To Do It”
PERFORMER “George Harrison”
FLAGS DCP
INDEX 01 67:31:68
TRACK 19 AUDIO
TITLE “Isn’t It A Pity”
PERFORMER “George Harrison”
FLAGS DCP
INDEX 01 70:26:39


Leave a Reply

Your email address will not be published. Required fields are marked *

Enter the text from the image below
 

This site uses Akismet to reduce spam. Learn how your comment data is processed.