George Harrison – George Harrison




Artist: George Harrison
Year: 1979/1991
Genre: Rock
Notes: Discogs
Add. Notes:
Cover incl.: Yes
Encoder: FLAC
Bitrate: ~800 kBit/s (44.1 kHz/16 Bit/s)
Log & Cue incl.: Yes/Yes
Size: 373,9 MB
Password: “slam” (without ” “)


All Downloads/Hosters are compatible

Download 1
KatFile.com
Turbobit.net
FileFactory.com
Rapidgator.net
Download 2
KatFile.com
Turbobit.net
FileFactory.com
Rapidgator.net

Tracklist:

1 Love Comes To Everyone 4:33
2 Not Guilty 3:36
3 Here Comes The Moon 4:46
4 Soft-Hearted Hana 4:03
5 Blow Away 3:59
6 Faster 4:40
7 Dark Sweet Lady 3:20
8 Your Love Is Forever 3:45
9 Soft Touch 4:00
10 If You Believe 2:53

EAC-Log, CUE-Sheed & NFO:

Click to open spoiler
Exact Audio Copy V1.0 beta 3 from 29. August 2011

EAC extraction logfile from 21. August 2014, 11:09

George Harrison / George Harrison (9 26613-2)

Used drive : SONY CD-RW CRX210E1 Adapter: 0 ID: 1

Read mode : Secure
Utilize accurate stream : Yes
Defeat audio cache : Yes
Make use of C2 pointers : No

Read offset correction : 6
Overread into Lead-In and Lead-Out : No
Fill up missing offset samples with silence : Yes
Delete leading and trailing silent blocks : No
Null samples used in CRC calculations : Yes
Used interface : Native Win32 interface for Win NT & 2000

Used output format : User Defined Encoder
Selected bitrate : 768 kBit/s
Quality : High
Add ID3 tag : No
Command line compressor : D:\ПРОГИ\Flac\flac.exe
Additional command line options : -V -8 %source%

TOC of the extracted CD

Track | Start | Length | Start sector | End sector
———————————————————
1 | 0:00.33 | 4:35.35 | 33 | 20692
2 | 4:35.68 | 3:34.72 | 20693 | 36814
3 | 8:10.65 | 4:50.23 | 36815 | 58587
4 | 13:01.13 | 4:04.02 | 58588 | 76889
5 | 17:05.15 | 4:00.53 | 76890 | 94942
6 | 21:05.68 | 4:48.10 | 94943 | 116552
7 | 25:54.03 | 3:22.25 | 116553 | 131727
8 | 29:16.28 | 3:48.12 | 131728 | 148839
9 | 33:04.40 | 3:59.68 | 148840 | 166832
10 | 37:04.33 | 2:56.05 | 166833 | 180037

Range status and errors

Selected range

Filename K:\Ready.zp\George Harrison – George Harrison (9 26613-2).wav

Peak level 100.0 %
Extraction speed 14.4 X
Range quality 100.0 %
Test CRC 32DAE673
Copy CRC 32DAE673
Copy OK

No errors occurred

AccurateRip summary

Track 1 accurately ripped (confidence 7) [8FF21654] (AR v2)
Track 2 accurately ripped (confidence 7) [60BA3537] (AR v2)
Track 3 accurately ripped (confidence 7) [99F99B4B] (AR v2)
Track 4 accurately ripped (confidence 7) [C4506561] (AR v2)
Track 5 accurately ripped (confidence 7) [010D78B5] (AR v2)
Track 6 accurately ripped (confidence 7) [7EFA461B] (AR v2)
Track 7 accurately ripped (confidence 7) [3424BE10] (AR v2)
Track 8 accurately ripped (confidence 7) [AF8FE42E] (AR v2)
Track 9 accurately ripped (confidence 7) [D6DE1E62] (AR v2)
Track 10 accurately ripped (confidence 8) [2C0A6FF2] (AR v2)

All tracks accurately ripped

End of status report

==== Log checksum 7A90756EBDC66D73CF36D5B525C495AC4A92420CF0C93621681C6A835D847B0C ====

REM GENRE Rock
REM DATE 1978
REM DISCID 9709600A
REM COMMENT “ExactAudioCopy v1.0b3”
PERFORMER “George Harrison”
TITLE “George Harrison (9 26613-2)”
FILE “George Harrison – George Harrison (9 26613-2).flac” WAVE
TRACK 01 AUDIO
TITLE “Love Comes To Everyone”
PERFORMER “George Harrison”
INDEX 00 00:00:00
INDEX 01 00:00:33
TRACK 02 AUDIO
TITLE “Not Guilty”
PERFORMER “George Harrison”
INDEX 00 04:35:50
INDEX 01 04:35:68
TRACK 03 AUDIO
TITLE “Here Comes The Moon”
PERFORMER “George Harrison”
INDEX 00 08:10:03
INDEX 01 08:10:65
TRACK 04 AUDIO
TITLE “Soft-Hearted Hana”
PERFORMER “George Harrison”
INDEX 00 12:59:38
INDEX 01 13:01:13
TRACK 05 AUDIO
TITLE “Blow Away”
PERFORMER “George Harrison”
INDEX 00 17:03:68
INDEX 01 17:05:15
TRACK 06 AUDIO
TITLE “Faster”
PERFORMER “George Harrison”
INDEX 00 21:05:00
INDEX 01 21:05:68
TRACK 07 AUDIO
TITLE “Dark Sweet Lady”
PERFORMER “George Harrison”
INDEX 00 25:52:20
INDEX 01 25:54:03
TRACK 08 AUDIO
TITLE “Your Love Is Forever”
PERFORMER “George Harrison”
INDEX 01 29:16:28
TRACK 09 AUDIO
TITLE “Soft Touch”
PERFORMER “George Harrison”
INDEX 00 33:01:35
INDEX 01 33:04:40
TRACK 10 AUDIO
TITLE “If You Believe”
PERFORMER “George Harrison”
INDEX 00 37:04:20
INDEX 01 37:04:33


Leave a Reply

Your email address will not be published. Required fields are marked *

Enter the text from the image below
 

This site uses Akismet to reduce spam. Learn how your comment data is processed.