George Harrison & Friends – The Concert For Bangladesh (Remastered Deluxe Edition)




No Cover available

Artist: George Harrison & Friends
Year: 1971/2005
Genre: Rock
Notes: Discogs
Add. Notes: Remastered Deluxe Edition
Watch Songs on: YouTube
Cover incl.: Yes
Encoder: FLAC
Bitrate: ~800 kBit/s (44.1 kHz/16 Bit/s)
Log & Cue incl.: Yes/Yes
Size: 618,5 MB
Password: “slam” (without ” “)


All Downloads/Hosters are compatible

Download 1
KatFile.com
Turbobit.net
FileFactory.com
Rapidgator.net
Download 2
KatFile.com
Turbobit.net
FileFactory.com
Rapidgator.net

Tracklist:

CD 1
01. George Harrison & Ravi Shankar - Introduction - 6:16
02. Ravi Shankar - Bangla Dhun - 16:19
03. George Harrison - Wah-Wah - 3:15
04. George Harrison - My Sweet Lord - 4:16
05. George Harrison - Awaiting On You All - 2:37
06. Billy Preston - That's The Way God Planned It - 4:05
07. Ringo Starr - It Don't Come Easy - 2:38
08. George Harrison - Beware Of Darkness - 3:26
09. George Harrison - Band Introduction - 3:00
10. George Harrison - While My Guitar Gently Weeps - 
4:39

CD 2
01. Leon Russell - Jumpin' Jack Flash / Youngblood - 9:11
02. George Harrison - Here Comes The Sun - 2:51
03. Bob Dylan - A Hard Rain's Gonna Fall - 5:04
04. Bob Dylan - It Takes A Lot To Laugh, It Takes A Train 
To Cry - 2:54
05. Bob Dylan - Blowin' In The Wind - 3:34
06. Bob Dylan - Mr. Tambourine Man - 4:06
07. Bob Dylan - Just Like A Woman - 4:14
08. George Harrison - Something - 3:05
09. George Harrison - Bangla Desh - 4:14

Additional Track
10. Bob Dylan - Love Minus Zero / No Limit - 4:16

EAC-Log, CUE-Sheed & NFO:

Click to open spoiler
Exact Audio Copy V1.0 beta 3 from 29. August 2011

EAC extraction logfile from 18. October 2014, 0:07

George Harrison and friends / The Concert for Bangladesh (Disc 1)

Used drive : ASUS DRW-22B3L Adapter: 0 ID: 1

Read mode : Secure
Utilize accurate stream : Yes
Defeat audio cache : Yes
Make use of C2 pointers : No

Read offset correction : 6
Overread into Lead-In and Lead-Out : No
Fill up missing offset samples with silence : Yes
Delete leading and trailing silent blocks : No
Null samples used in CRC calculations : Yes
Used interface : Native Win32 interface for Win NT & 2000

Used output format : User Defined Encoder
Selected bitrate : 128 kBit/s
Quality : High
Add ID3 tag : Yes
Command line compressor : C:\Program Files (x86)\Exact Audio Copy\Flac\flac.exe
Additional command line options : -V -8 -T “Genre=%genre%” -T “Artist=%artist%” -T “Title=%title%” -T “Album=%albumtitle%” -T “Date=%year%” -T “Tracknumber=%tracknr%” -T “Comment=%comment%” %source%

TOC of the extracted CD

Track | Start | Length | Start sector | End sector
———————————————————
1 | 0:00.00 | 5:18.26 | 0 | 23875
2 | 5:18.26 | 16:39.35 | 23876 | 98835
3 | 21:57.61 | 3:30.04 | 98836 | 114589
4 | 25:27.65 | 4:35.55 | 114590 | 135269
5 | 30:03.45 | 3:00.22 | 135270 | 148791
6 | 33:03.67 | 4:20.12 | 148792 | 168303
7 | 37:24.04 | 3:00.43 | 168304 | 181846
8 | 40:24.47 | 3:35.65 | 181847 | 198036
9 | 44:00.37 | 2:38.59 | 198037 | 209945
10 | 46:39.21 | 4:53.42 | 209946 | 231962

Range status and errors

Selected range

Filename D:\Seed\Re-rip\George Harrison\George Harrison and friends – The Concert for Bangladesh\Disc 1\George Harrison and friends – The Concert for Bangladesh (Disc 1).wav

Peak level 100.0 %
Extraction speed 5.7 X
Range quality 100.0 %
Test CRC E7F0CB51
Copy CRC E7F0CB51
Copy OK

No errors occurred

AccurateRip summary

Track 1 accurately ripped (confidence 33) [AFC8785E] (AR v2)
Track 2 accurately ripped (confidence 33) [B57C302C] (AR v2)
Track 3 accurately ripped (confidence 33) [ED39D9A7] (AR v2)
Track 4 accurately ripped (confidence 33) [05E4E27C] (AR v2)
Track 5 accurately ripped (confidence 33) [DE169F50] (AR v2)
Track 6 accurately ripped (confidence 33) [3F115B06] (AR v2)
Track 7 accurately ripped (confidence 33) [1D230129] (AR v2)
Track 8 accurately ripped (confidence 32) [ABAD339E] (AR v2)
Track 9 accurately ripped (confidence 33) [5AADC88C] (AR v2)
Track 10 accurately ripped (confidence 32) [187BFAEF] (AR v2)

All tracks accurately ripped

End of status report

==== Log checksum FFFB6BB827E722BC5BB2EA40434F721C016D0F9F4438FD767B7AC7A8BDA3095B ====

Exact Audio Copy V1.0 beta 3 from 29. August 2011

EAC extraction logfile from 18. October 2014, 0:37

George Harrison and friends / The Concert for Bangladesh (Disc 2)

Used drive : ASUS DRW-22B3L Adapter: 0 ID: 1

Read mode : Secure
Utilize accurate stream : Yes
Defeat audio cache : Yes
Make use of C2 pointers : No

Read offset correction : 6
Overread into Lead-In and Lead-Out : No
Fill up missing offset samples with silence : Yes
Delete leading and trailing silent blocks : No
Null samples used in CRC calculations : Yes
Used interface : Native Win32 interface for Win NT & 2000

Used output format : User Defined Encoder
Selected bitrate : 128 kBit/s
Quality : High
Add ID3 tag : Yes
Command line compressor : C:\Program Files (x86)\Exact Audio Copy\Flac\flac.exe
Additional command line options : -V -8 -T “Genre=%genre%” -T “Artist=%artist%” -T “Title=%title%” -T “Album=%albumtitle%” -T “Date=%year%” -T “Tracknumber=%tracknr%” -T “Comment=%comment%” %source%

TOC of the extracted CD

Track | Start | Length | Start sector | End sector
———————————————————
1 | 0:00.00 | 9:26.49 | 0 | 42498
2 | 9:26.49 | 2:58.56 | 42499 | 55904
3 | 12:25.30 | 5:44.04 | 55905 | 81708
4 | 18:09.34 | 3:07.10 | 81709 | 95743
5 | 21:16.44 | 4:06.62 | 95744 | 114255
6 | 25:23.31 | 4:44.56 | 114256 | 135611
7 | 30:08.12 | 4:48.52 | 135612 | 157263
8 | 34:56.64 | 3:42.13 | 157264 | 173926
9 | 38:39.02 | 5:01.48 | 173927 | 196549
10 | 43:40.50 | 4:19.34 | 196550 | 216008

Range status and errors

Selected range

Filename D:\Seed\Re-rip\George Harrison\George Harrison and friends – The Concert for Bangladesh\Disc 2\George Harrison and friends – The Concert for Bangladesh (Disc 2).wav

Peak level 100.0 %
Extraction speed 2.9 X
Range quality 99.9 %
Test CRC B8C252D6
Copy CRC B8C252D6
Copy OK

No errors occurred

AccurateRip summary

Track 1 accurately ripped (confidence 25) [548B520D] (AR v2)
Track 2 accurately ripped (confidence 25) [9072D011] (AR v2)
Track 3 accurately ripped (confidence 25) [4DB2C5BA] (AR v2)
Track 4 accurately ripped (confidence 25) [9F25D9FA] (AR v2)
Track 5 accurately ripped (confidence 25) [2A7E43B0] (AR v2)
Track 6 accurately ripped (confidence 25) [06A53FF4] (AR v2)
Track 7 accurately ripped (confidence 25) [795376D7] (AR v2)
Track 8 accurately ripped (confidence 25) [5A79B812] (AR v2)
Track 9 accurately ripped (confidence 26) [6D9C5BD9] (AR v2)
Track 10 accurately ripped (confidence 25) [CB168703] (AR v2)

All tracks accurately ripped

End of status report

==== Log checksum 15A0A89AE043B05E2C3949C0A15740F38B45BBE4FCD3B0F14D10F2B34EE47461 ====

REM GENRE “Classic Rock”
REM DATE 1971
REM DISCID 800C140A
REM COMMENT “ExactAudioCopy v1.0b3”
PERFORMER “George Harrison and friends”
TITLE “The Concert for Bangladesh (Disc 1)”
FILE “George Harrison and friends – The Concert for Bangladesh (Disc 1).flac” WAVE
TRACK 01 AUDIO
TITLE “Introduction By George Harrison & Ravi Shankar”
PERFORMER “George Harrison and friends”
INDEX 01 00:00:00
TRACK 02 AUDIO
TITLE “Bangla Dhun”
PERFORMER “George Harrison and friends”
INDEX 01 05:18:26
TRACK 03 AUDIO
TITLE “Wah-Wah”
PERFORMER “George Harrison and friends”
INDEX 01 21:57:61
TRACK 04 AUDIO
TITLE “My Sweet Lord”
PERFORMER “George Harrison and friends”
INDEX 01 25:27:65
TRACK 05 AUDIO
TITLE “Awaiting On You All”
PERFORMER “George Harrison and friends”
INDEX 01 30:03:45
TRACK 06 AUDIO
TITLE “That’s the Way God Planned It”
PERFORMER “George Harrison and friends”
INDEX 01 33:03:67
TRACK 07 AUDIO
TITLE “It Don’t Come Easy”
PERFORMER “George Harrison and friends”
INDEX 01 37:24:04
TRACK 08 AUDIO
TITLE “Beware of Darkness”
PERFORMER “George Harrison and friends”
INDEX 01 40:24:47
TRACK 09 AUDIO
TITLE “Band Introduction”
PERFORMER “George Harrison and friends”
INDEX 01 44:00:37
TRACK 10 AUDIO
TITLE “While My Guitar Gently Weeps”
PERFORMER “George Harrison and friends”
INDEX 01 46:39:21

REM GENRE Other
REM DATE 1971
REM DISCID 820B400A
REM COMMENT “ExactAudioCopy v1.0b3”
PERFORMER “George Harrison and friends”
TITLE “The Concert for Bangladesh (Disc 2)”
FILE “George Harrison and friends – The Concert for Bangladesh (Disc 2).flac” WAVE
TRACK 01 AUDIO
TITLE “Medley: Jumpin’ Jack Flash/Young Blood”
PERFORMER “George Harrison and friends”
INDEX 01 00:00:00
TRACK 02 AUDIO
TITLE “Here Comes The Sun”
PERFORMER “George Harrison and friends”
INDEX 01 09:26:49
TRACK 03 AUDIO
TITLE “A Hard Rain’s A-Gonna Fall”
PERFORMER “George Harrison and friends”
INDEX 01 12:25:30
TRACK 04 AUDIO
TITLE “It Takes A Lot To Laugh It Takes A Train To Cry”
PERFORMER “George Harrison and friends”
INDEX 01 18:09:34
TRACK 05 AUDIO
TITLE “Blowin’ In The Wind”
PERFORMER “George Harrison and friends”
INDEX 01 21:16:44
TRACK 06 AUDIO
TITLE “Mr. Tambourine Man”
PERFORMER “George Harrison and friends”
INDEX 01 25:23:31
TRACK 07 AUDIO
TITLE “Just Like a Woman”
PERFORMER “George Harrison and friends”
INDEX 01 30:08:12
TRACK 08 AUDIO
TITLE “Something”
PERFORMER “George Harrison and friends”
INDEX 01 34:56:64
TRACK 09 AUDIO
TITLE “Bangla Desh”
PERFORMER “George Harrison and friends”
INDEX 01 38:39:02
TRACK 10 AUDIO
TITLE “Love Minus Zero/No Limit”
PERFORMER “George Harrison and friends”
INDEX 00 43:34:19
INDEX 01 43:40:50


Leave a Reply

Your email address will not be published. Required fields are marked *

Enter the text from the image below
 

This site uses Akismet to reduce spam. Learn how your comment data is processed.