George Harrison – Extra Texture




No Cover available

Artist: George Harrison
Year: 1975/1992
Genre: Rock
Notes: Discogs
Add. Notes:
Watch Songs on: YouTube
Cover incl.: Yes
Encoder: FLAC
Bitrate: ~700 kBit/s (44.1 kHz/16 Bit/s)
Log & Cue incl.: Yes/Yes
Size: 248,2 MB
Password: “slam” (without ” “)


All Downloads/Hosters are compatible

Download 1
KatFile.com
Turbobit.net
FileFactory.com
Rapidgator.net
Download 2
KatFile.com
Turbobit.net
FileFactory.com
Rapidgator.net

Tracklist:

1 You 3:42
2 The Answer's At The End 5:32
3 This Guitar (Can't Keep From Crying) 4:11
4 Ooh Baby (You Know That I Love You) 3:59
5 World Of Stone 4:40
6 A Bit More Of You 0:45
7 Can't Stop Thinking About You 4:31
8 Tired Of Midnight Blue 4:51
9 Grey Cloudy Lies 3:41
10 His Name Is Legs (Ladies And Gentlemen) 5:46

EAC-Log, CUE-Sheed & NFO:

Click to open spoiler
Exact Audio Copy V0.99 prebeta 5 from 4. May 2009

Отчёт EAC об извлечении, выполненном 15. августа 2014, 22:38

George Harrison / Extra Texture

Дисковод: SONY BD RW BDX-S500U Adapter: 1 ID: 0

Режим чтения : Достоверность
Использование точного потока : Да
Отключение кэша аудио : Да
Использование указателей C2 : Нет

Коррекция смещения при чтении : 48
Способность читать области Lead-in и Lead-out : Нет
Заполнение пропущенных сэмплов тишиной : Да
Удаление блоков с тишиной в начале и конце : Нет
При вычислениях CRC использовались нулевые сэмплы : Да
Интерфейс : Встроенный Win32-интерфейс для Win NT/2000

Выходной формат : Пользовательский кодировщик
Выбранный битрейт : 128 kBit/s
Качество : Высокий
Добавление ID3-тэга : Нет
Утилита сжатия : C:\Program Files (x86)\FLAC\flac.exe

TOC извлечённого CD

Трек | Старт | Длительность | Начальный сектор | Конечный сектор
———————————————————————
1 | 0:00.33 | 3:44.50 | 33 | 16882
2 | 3:45.08 | 5:33.65 | 16883 | 41922
3 | 9:18.73 | 4:13.17 | 41923 | 60914
4 | 13:32.15 | 4:01.03 | 60915 | 78992
5 | 17:33.18 | 4:42.37 | 78993 | 100179
6 | 22:15.55 | 0:44.55 | 100180 | 103534
7 | 23:00.35 | 4:32.23 | 103535 | 123957
8 | 27:32.58 | 4:53.30 | 123958 | 145962
9 | 32:26.13 | 3:42.25 | 145963 | 162637
10 | 36:08.38 | 5:46.22 | 162638 | 188609

Характеристики диапазона извлечения и сообщения об ошибках

Выбранный диапазон

Имя файла F:\Harrison_CDS\Extra Texture\George Harrison – Extra Texture.wav

Пиковый уровень 100.0 %
Качество диапазона 100.0 %
CRC теста 4B825D4C
CRC копии 4B825D4C
Копирование… OK

Ошибок не произошло

AccurateRip: сводка

Трек 1 точное извлечение (доверие 8) [1F3221D3]
Трек 2 точное извлечение (доверие 8) [18DDEA2D]
Трек 3 точное извлечение (доверие 9) [56DBC040]
Трек 4 точное извлечение (доверие 9) [F255454D]
Трек 5 точное извлечение (доверие 9) [1FE461C5]
Трек 6 точное извлечение (доверие 9) [196AFF1B]
Трек 7 точное извлечение (доверие 9) [81A2A65E]
Трек 8 точное извлечение (доверие 9) [6824D94A]
Трек 9 точное извлечение (доверие 9) [7573C086]
Трек 10 точное извлечение (доверие 8) [624B5D11]

Все треки извлечены точно

Конец отчёта

REM GENRE Rock
REM DATE 1975
REM DISCID 7C09D20A
REM COMMENT “ExactAudioCopy v0.99pb5”
PERFORMER “George Harrison”
TITLE “Extra Texture”
FILE “George Harrison – Extra Texture.flac” WAVE
TRACK 01 AUDIO
TITLE “You”
PERFORMER “George Harrison”
INDEX 00 00:00:00
INDEX 01 00:00:33
TRACK 02 AUDIO
TITLE “The Answer’s at the End”
PERFORMER “George Harrison”
INDEX 00 03:42:58
INDEX 01 03:45:08
TRACK 03 AUDIO
TITLE “This Guitar (Can’t Keep from Crying)”
PERFORMER “George Harrison”
INDEX 00 09:17:03
INDEX 01 09:18:73
TRACK 04 AUDIO
TITLE “Ooh Baby (You Know That I Love You)”
PERFORMER “George Harrison”
INDEX 00 13:30:03
INDEX 01 13:32:15
TRACK 05 AUDIO
TITLE “World of Stone”
PERFORMER “George Harrison”
INDEX 00 17:31:43
INDEX 01 17:33:18
TRACK 06 AUDIO
TITLE “A Bit More of You”
PERFORMER “George Harrison”
INDEX 00 22:13:20
INDEX 01 22:15:55
TRACK 07 AUDIO
TITLE “Can’t Stop Thinking About You”
PERFORMER “George Harrison”
INDEX 00 23:00:33
INDEX 01 23:00:35
TRACK 08 AUDIO
TITLE “Tired of Midnight Blue”
PERFORMER “George Harrison”
INDEX 00 27:31:00
INDEX 01 27:32:58
TRACK 09 AUDIO
TITLE “Grey Cloudy Lies”
PERFORMER “George Harrison”
INDEX 00 32:24:15
INDEX 01 32:26:13
TRACK 10 AUDIO
TITLE “His Name Is Legs (Ladies and Gentlemen)”
PERFORMER “George Harrison”
INDEX 00 36:07:18
INDEX 01 36:08:38


Leave a Reply

Your email address will not be published. Required fields are marked *

Enter the text from the image below
 

This site uses Akismet to reduce spam. Learn how your comment data is processed.