George Harrison – Early Takes Volume 1




No Cover available

Artist: George Harrison
Year: 2012
Genre: Rock
Notes: Discogs
Add. Notes:
Watch Songs on: YouTube
Cover incl.: Yes
Encoder: FLAC
Bitrate: ~800 kBit/s (44.1 kHz/16 Bit/s)
Log & Cue incl.: Yes/Yes
Size: 178,1 MB
Password: “slam” (without ” “)


All Downloads/Hosters are compatible

Download 1
KatFile.com
Turbobit.net
Rapidgator.net
FileFactory.com
Download 2
KatFile.com
Turbobit.net
Rapidgator.net
FileFactory.com

Tracklist:

1 My Sweet Lord (Demo) 3:33
2 Run Of The Mill (Demo) 1:56
3 I'd Have You Any Time (Early Take) 3:06
4 Mama You've Been On My Mind (Demo) 3:04
5 Let It Be Me (Demo) 2:56
6 Woman Don't You Cry For Me (Early Take) 2:44
7 Awaiting On You All (Early Take) 2:40
8 Behind That Locked Door (Demo) 3:29
9 All Things Must Pass (Demo) 4:38
10 The Light That Has Lighted The World (Demo) 2:23

EAC-Log, CUE-Sheed & NFO:

Click to open spoiler
Exact Audio Copy V1.0 beta 3 from 29. August 2011

EAC extraction logfile from 16. October 2014, 18:20

George Harrison / Early Takes Volume 1

Used drive : ASUS SDRW-08D1S-U Adapter: 1 ID: 0

Read mode : Secure
Utilize accurate stream : Yes
Defeat audio cache : Yes
Make use of C2 pointers : No

Read offset correction : 667
Overread into Lead-In and Lead-Out : No
Fill up missing offset samples with silence : Yes
Delete leading and trailing silent blocks : No
Null samples used in CRC calculations : Yes
Used interface : Native Win32 interface for Win NT & 2000

Used output format : User Defined Encoder
Selected bitrate : 128 kBit/s
Quality : High
Add ID3 tag : No
Command line compressor : C:\Program Files (x86)\Exact Audio Copy\Flac\flac.exe
Additional command line options : -V -8 -T “Date=%year%” -T “Genre=%genre%” %source%

TOC of the extracted CD

Track | Start | Length | Start sector | End sector
———————————————————
1 | 0:00.00 | 3:34.12 | 0 | 16061
2 | 3:34.12 | 1:55.45 | 16062 | 24731
3 | 5:29.57 | 3:06.16 | 24732 | 38697
4 | 8:35.73 | 3:05.27 | 38698 | 52599
5 | 11:41.25 | 2:56.00 | 52600 | 65799
6 | 14:37.25 | 2:43.53 | 65800 | 78077
7 | 17:21.03 | 2:40.74 | 78078 | 90151
8 | 20:02.02 | 3:29.05 | 90152 | 105831
9 | 23:31.07 | 4:39.54 | 105832 | 126810
10 | 28:10.61 | 2:23.00 | 126811 | 137535

Range status and errors

Selected range

Filename C:\Users\Олег\Desktop\Early Takes vol.1\George Harrison – Early Takes Volume 1.wav

Peak level 98.7 %
Extraction speed 3.4 X
Range quality 100.0 %
Test CRC 7B0A2E5D
Copy CRC 7B0A2E5D
Copy OK

No errors occurred

AccurateRip summary

Track 1 accurately ripped (confidence 63) [9190775A] (AR v2)
Track 2 accurately ripped (confidence 62) [8E126913] (AR v2)
Track 3 accurately ripped (confidence 62) [63829DF4] (AR v2)
Track 4 accurately ripped (confidence 62) [80BAC014] (AR v2)
Track 5 accurately ripped (confidence 62) [B271E5D9] (AR v2)
Track 6 accurately ripped (confidence 62) [ACD4E520] (AR v2)
Track 7 accurately ripped (confidence 62) [65356024] (AR v2)
Track 8 accurately ripped (confidence 62) [98E6DA2E] (AR v2)
Track 9 accurately ripped (confidence 62) [FD1F6596] (AR v2)
Track 10 accurately ripped (confidence 62) [C555E3D6] (AR v2)

All tracks accurately ripped

End of status report

==== Log checksum 26AECDCE38E37908B5F0FB6255A8DFEF556A76F65D8F7EC34E1B8C55EA2DC81A ====

REM GENRE Rock
REM DATE 2011
REM DISCID 6B07290A
REM COMMENT “ExactAudioCopy v1.0b3”
PERFORMER “George Harrison”
TITLE “Early Takes Volume 1”
FILE “George Harrison – Early Takes Volume 1.flac” WAVE
TRACK 01 AUDIO
TITLE “My Sweet Lord (Demo)”
PERFORMER “George Harrison”
INDEX 01 00:00:00
TRACK 02 AUDIO
TITLE “Run Of The Mill (Demo)”
PERFORMER “George Harrison”
INDEX 00 03:33:05
INDEX 01 03:34:12
TRACK 03 AUDIO
TITLE “I’d Have You Anytime (Early Take)”
PERFORMER “George Harrison”
INDEX 00 05:29:52
INDEX 01 05:29:57
TRACK 04 AUDIO
TITLE “Mama, You’ve Been On My Mind (Demo)”
PERFORMER “George Harrison”
INDEX 00 08:35:31
INDEX 01 08:35:73
TRACK 05 AUDIO
TITLE “Let It Be Me (Demo)”
PERFORMER “George Harrison”
INDEX 00 11:39:44
INDEX 01 11:41:25
TRACK 06 AUDIO
TITLE “Woman Don’t You Cry For Me (Early Take)”
PERFORMER “George Harrison”
INDEX 00 14:36:43
INDEX 01 14:37:25
TRACK 07 AUDIO
TITLE “Awaiting On You All (Early Take)”
PERFORMER “George Harrison”
INDEX 00 17:20:73
INDEX 01 17:21:03
TRACK 08 AUDIO
TITLE “Behind That Locked Door (Demo)”
PERFORMER “George Harrison”
INDEX 00 20:01:34
INDEX 01 20:02:02
TRACK 09 AUDIO
TITLE “All Things Must Pass (Demo)”
PERFORMER “George Harrison”
INDEX 01 23:31:07
TRACK 10 AUDIO
TITLE “The Light That Has Lighted The World (Demo)”
PERFORMER “George Harrison”
INDEX 00 28:07:71
INDEX 01 28:10:61


Leave a Reply

Your email address will not be published. Required fields are marked *

Enter the text from the image below
 

This site uses Akismet to reduce spam. Learn how your comment data is processed.