George Harrison – Dark Horse




Artist: George Harrison
Year: 1991
Genre: Rock
Notes: Discogs
Add. Notes:
Cover incl.: Yes
Encoder: FLAC
Bitrate: ~800 kBit/s (44.1 kHz/16 Bit/s)
Log & Cue incl.: Yes
Size: 426 MB
Password: “slam” (without ” “)


All Downloads/Hosters are compatible

Download 1
KatFile.com
Turbobit.net
FileFactory.com
Rapidgator.net
Download 2
KatFile.com
Turbobit.net
FileFactory.com
Rapidgator.net

Tracklist:

1 - Hari's On Tour (Express) - 4:44
2 - Simply Shady - 4:38
3 - So Sad - 5:01
4 - Bye Bye, Love - 4:06
5 - Māya Love - 4:24
6 - Ding Dong, Ding Dong - 3:41
7 - Dark Horse - 3:54
8 - Far East Man - 5:52
9 - It Is "He" (Jai Sri Krishna) - 4:51

EAC-Log, CUE-Sheed & NFO:

Click to open spoiler
REM GENRE Rock
REM DATE 1974
REM DISCID 7509AF09
REM COMMENT “ExactAudioCopy v1.0b3”
PERFORMER “George Harrison”
TITLE “Dark Horse (CDP 7 98079 2)”
FILE “George Harrison – Dark Horse (CDP 7 98079 2).flac” WAVE
TRACK 01 AUDIO
TITLE “Hari’s On Tour (Express)”
PERFORMER “George Harrison”
INDEX 00 00:00:00
INDEX 01 00:00:32
TRACK 02 AUDIO
TITLE “Simple Shady”
PERFORMER “George Harrison”
INDEX 00 04:44:00
INDEX 01 04:44:62
TRACK 03 AUDIO
TITLE “So Sad”
PERFORMER “George Harrison”
INDEX 00 09:22:65
INDEX 01 09:23:35
TRACK 04 AUDIO
TITLE “Bye Bye, Love”
PERFORMER “George Harrison”
INDEX 00 14:24:20
INDEX 01 14:25:40
TRACK 05 AUDIO
TITLE “Maya Love”
PERFORMER “George Harrison”
INDEX 00 18:33:62
INDEX 01 18:34:45
TRACK 06 AUDIO
TITLE “Ding Dong, Ding Dong”
PERFORMER “George Harrison”
INDEX 00 22:58:50
INDEX 01 22:58:72
TRACK 07 AUDIO
TITLE “Dark Horse”
PERFORMER “George Harrison”
INDEX 00 26:39:25
INDEX 01 26:40:45
TRACK 08 AUDIO
TITLE “Far East Man”
PERFORMER “George Harrison”
INDEX 00 30:34:57
INDEX 01 30:35:65
TRACK 09 AUDIO
TITLE “It Is ‘He’ (Jai Sri Krishna)”
PERFORMER “George Harrison”
INDEX 00 36:27:70
INDEX 01 36:29:30

Exact Audio Copy V1.0 beta 3 from 29. August 2011

EAC extraction logfile from 21. August 2014, 10:40

George Harrison / Dark Horse (CDP 7 98079 2)

Used drive : SONY CD-RW CRX210E1 Adapter: 0 ID: 1

Read mode : Secure
Utilize accurate stream : Yes
Defeat audio cache : Yes
Make use of C2 pointers : No

Read offset correction : 6
Overread into Lead-In and Lead-Out : No
Fill up missing offset samples with silence : Yes
Delete leading and trailing silent blocks : No
Null samples used in CRC calculations : Yes
Used interface : Native Win32 interface for Win NT & 2000

Used output format : User Defined Encoder
Selected bitrate : 768 kBit/s
Quality : High
Add ID3 tag : No
Command line compressor : D:\ПРОГИ\Flac\flac.exe
Additional command line options : -V -8 %source%

TOC of the extracted CD

Track | Start | Length | Start sector | End sector
———————————————————
1 | 0:00.32 | 4:44.30 | 32 | 21361
2 | 4:44.62 | 4:38.48 | 21362 | 42259
3 | 9:23.35 | 5:02.05 | 42260 | 64914
4 | 14:25.40 | 4:09.05 | 64915 | 83594
5 | 18:34.45 | 4:24.27 | 83595 | 103421
6 | 22:58.72 | 3:41.48 | 103422 | 120044
7 | 26:40.45 | 3:55.20 | 120045 | 137689
8 | 30:35.65 | 5:53.40 | 137690 | 164204
9 | 36:29.30 | 4:50.32 | 164205 | 185986

Range status and errors

Selected range

Filename K:\Ready.zp\George Harrison – Dark Horse (CDP 7 98079 2).wav

Peak level 100.0 %
Extraction speed 14.6 X
Range quality 100.0 %
Test CRC 7FB1CC1B
Copy CRC 7FB1CC1B
Copy OK

No errors occurred

AccurateRip summary

Track 1 accurately ripped (confidence 8) [0A254317] (AR v2)
Track 2 accurately ripped (confidence 8) [2EC851FD] (AR v2)
Track 3 accurately ripped (confidence 8) [AE5746A9] (AR v2)
Track 4 accurately ripped (confidence 8) [78F1DEAA] (AR v2)
Track 5 accurately ripped (confidence 8) [DC1BA2F8] (AR v2)
Track 6 accurately ripped (confidence 9) [E5F8CC67] (AR v2)
Track 7 accurately ripped (confidence 9) [B2C4051E] (AR v2)
Track 8 accurately ripped (confidence 8) [6FBEA0BE] (AR v2)
Track 9 accurately ripped (confidence 8) [91C963C7] (AR v2)

All tracks accurately ripped

End of status report

==== Log checksum 9972907D91C754BB670EA8513B2FD76907CE82D2AFFC0175606CB8F5CF913FF9 ====


Leave a Reply

Your email address will not be published. Required fields are marked *

Enter the text from the image below
 

This site uses Akismet to reduce spam. Learn how your comment data is processed.