George Harrison – Dark Horse




No Cover available

Artist: George Harrison
Year: 1974/1992
Genre: Rock
Notes: Discogs
Add. Notes:
Watch Songs on: YouTube
Cover incl.: Yes
Encoder: FLAC
Bitrate: ~800 kBit/s (44.1 kHz/16 Bit/s)
Log & Cue incl.: Yes/Yes
Size: 269,2 MB
Password: “slam” (without ” “)


All Downloads/Hosters are compatible

Download 1
KatFile.com
Turbobit.net
Rapidgator.net
FileFactory.com
Download 2
KatFile.com
Turbobit.net
Rapidgator.net
FileFactory.com

Tracklist:

1 Hari's On Tour (Express) 4:40
2 Simply Shady 4:34
3 So Sad 4:55
4 Bye Bye, Love 4:03
5 Māya Love 4:20
6 Ding Dong, Ding Dong 3:37
7 Dark Horse 3:52
8 Far East Man 5:47
9 It Is "He" (Jai Sri Krishna) 4:44

EAC-Log, CUE-Sheed & NFO:

Click to open spoiler
Exact Audio Copy V1.0 beta 3 from 29. August 2011

EAC extraction logfile from 6. September 2014, 19:07

George Harrison / Dark Horse

Used drive : ASUS SDRW-08D1S-U Adapter: 1 ID: 0

Read mode : Secure
Utilize accurate stream : Yes
Defeat audio cache : Yes
Make use of C2 pointers : No

Read offset correction : 667
Overread into Lead-In and Lead-Out : No
Fill up missing offset samples with silence : Yes
Delete leading and trailing silent blocks : No
Null samples used in CRC calculations : Yes
Used interface : Native Win32 interface for Win NT & 2000

Used output format : User Defined Encoder
Selected bitrate : 128 kBit/s
Quality : High
Add ID3 tag : No
Command line compressor : C:\Program Files (x86)\Exact Audio Copy\Flac\flac.exe
Additional command line options : -V -8 -T “Date=%year%” -T “Genre=%genre%” %source%

TOC of the extracted CD

Track | Start | Length | Start sector | End sector
———————————————————
1 | 0:00.32 | 4:45.05 | 32 | 21411
2 | 4:45.37 | 4:38.50 | 21412 | 42311
3 | 9:24.12 | 5:02.00 | 42312 | 64961
4 | 14:26.12 | 4:09.13 | 64962 | 83649
5 | 18:35.25 | 4:24.22 | 83650 | 103471
6 | 22:59.47 | 3:41.48 | 103472 | 120094
7 | 26:41.20 | 3:55.17 | 120095 | 137736
8 | 30:36.37 | 5:53.45 | 137737 | 164256
9 | 36:30.07 | 4:49.40 | 164257 | 185971

Range status and errors

Selected range

Filename C:\Users\Олег\Desktop\George Harrison – Dark Horse.wav

Peak level 100.0 %
Extraction speed 3.7 X
Range quality 100.0 %
Test CRC 9A70EB38
Copy CRC 9A70EB38
Copy OK

No errors occurred

AccurateRip summary

Track 1 accurately ripped (confidence 7) [6D8F25BA] (AR v2)
Track 2 accurately ripped (confidence 7) [BBF59D04] (AR v2)
Track 3 accurately ripped (confidence 7) [BCAFD7E2] (AR v2)
Track 4 accurately ripped (confidence 7) [2110F18A] (AR v2)
Track 5 accurately ripped (confidence 7) [516CA086] (AR v2)
Track 6 accurately ripped (confidence 7) [E353624C] (AR v2)
Track 7 accurately ripped (confidence 7) [D9873537] (AR v2)
Track 8 accurately ripped (confidence 7) [33F5B3AA] (AR v2)
Track 9 accurately ripped (confidence 7) [2ABC6DE3] (AR v2)

All tracks accurately ripped

End of status report

==== Log checksum AA4B51A22F6D37203B45D55906DFD97752DF5368C09BA40F3FC6C467A68A91C4 ====

REM GENRE Rock
REM DATE 1974
REM DISCID 7D09AF09
REM COMMENT “ExactAudioCopy v1.0b3”
PERFORMER “George Harrison”
TITLE “Dark Horse”
FILE “George Harrison – Dark Horse.flac” WAVE
TRACK 01 AUDIO
TITLE “Hari’s On Tour (Express)”
PERFORMER “George Harrison”
INDEX 00 00:00:00
INDEX 01 00:00:32
TRACK 02 AUDIO
TITLE “Simple Shady”
PERFORMER “George Harrison”
INDEX 00 04:44:67
INDEX 01 04:45:37
TRACK 03 AUDIO
TITLE “So Sad”
PERFORMER “George Harrison”
INDEX 00 09:23:57
INDEX 01 09:24:12
TRACK 04 AUDIO
TITLE “Bye Bye, Love”
PERFORMER “George Harrison”
INDEX 00 14:25:10
INDEX 01 14:26:12
TRACK 05 AUDIO
TITLE “Maya Love”
PERFORMER “George Harrison”
INDEX 00 18:34:45
INDEX 01 18:35:25
TRACK 06 AUDIO
TITLE “Ding Dong, Ding Dong”
PERFORMER “George Harrison”
INDEX 00 22:59:32
INDEX 01 22:59:47
TRACK 07 AUDIO
TITLE “Dark Horse”
PERFORMER “George Harrison”
INDEX 00 26:40:13
INDEX 01 26:41:20
TRACK 08 AUDIO
TITLE “Far East Man”
PERFORMER “George Harrison”
INDEX 00 30:35:50
INDEX 01 30:36:37
TRACK 09 AUDIO
TITLE “It Is ‘He’ (Jai Sri Krishna)”
PERFORMER “George Harrison”
INDEX 00 36:28:57
INDEX 01 36:30:07


0

Publication author

offline 7 days

Chaos

3
Comments: 4Publics: 3565Registration: 02-02-2019
Spread the Download

Leave a Reply

Your email address will not be published. Required fields are marked *

Enter the text from the image below
 

This site uses Akismet to reduce spam. Learn how your comment data is processed.