George Harrison – Cloud Nine




No Cover available

Artist: George Harrison
Year: 1987
Genre: Rock
Notes: Discogs
Add. Notes:
Watch Songs on: YouTube
Cover incl.: Yes
Encoder: FLAC
Bitrate: ~800 kBit/s (44.1 kHz/16 Bit/s)
Log & Cue incl.: Yes/Yes
Size: 388,4 MB
Password: “slam” (without ” “)


All Downloads/Hosters are compatible

Download 1
KatFile.com
Turbobit.net
Rapidgator.net
FileFactory.com
Download 2
KatFile.com
Turbobit.net
Rapidgator.net
FileFactory.com

Tracklist:

1 Cloud 9 3:15
2 That's What It Takes 4:01
3 Fish On The Sand 3:24
4 Just For Today 4:05
5 This Is Love 3:49
6 When We Was Fab 3:57
7 Devil's Radio 3:53
8 Someplace Else 3:52
9 Wreck Of The Hesperus 3:33
10 Breath Away From Heaven 3:35
11 Got My Mind Set On You 3:50

EAC-Log, CUE-Sheed & NFO:

Click to open spoiler
Exact Audio Copy V1.0 beta 3 from 29. August 2011

EAC extraction logfile from 25. August 2014, 13:53

George Harrison / Cloud Nine (9 25643-2)

Used drive : SONY CD-RW CRX210E1 Adapter: 0 ID: 1

Read mode : Secure
Utilize accurate stream : Yes
Defeat audio cache : Yes
Make use of C2 pointers : No

Read offset correction : 6
Overread into Lead-In and Lead-Out : No
Fill up missing offset samples with silence : Yes
Delete leading and trailing silent blocks : No
Null samples used in CRC calculations : Yes
Used interface : Native Win32 interface for Win NT & 2000

Used output format : User Defined Encoder
Selected bitrate : 768 kBit/s
Quality : High
Add ID3 tag : No
Command line compressor : D:\ПРОГИ\Flac\flac.exe
Additional command line options : -V -8 %source%

TOC of the extracted CD

Track | Start | Length | Start sector | End sector
———————————————————
1 | 0:00.00 | 3:15.60 | 0 | 14684
2 | 3:15.60 | 4:01.02 | 14685 | 32761
3 | 7:16.62 | 3:24.20 | 32762 | 48081
4 | 10:41.07 | 4:05.70 | 48082 | 66526
5 | 14:47.02 | 3:49.28 | 66527 | 83729
6 | 18:36.30 | 3:57.67 | 83730 | 101571
7 | 22:34.22 | 3:53.48 | 101572 | 119094
8 | 26:27.70 | 3:52.55 | 119095 | 136549
9 | 30:20.50 | 3:33.37 | 136550 | 152561
10 | 33:54.12 | 3:35.70 | 152562 | 168756
11 | 37:30.07 | 3:50.58 | 168757 | 186064

Range status and errors

Selected range

Filename E:\Ready.zp\George Harrison – Cloud Nine (9 25643-2).wav

Peak level 100.0 %
Extraction speed 14.7 X
Range quality 100.0 %
Test CRC 9BECA705
Copy CRC 9BECA705
Copy OK

No errors occurred

AccurateRip summary

Track 1 accurately ripped (confidence 3) [A7F2B950] (AR v2)
Track 2 accurately ripped (confidence 3) [1F8117C4] (AR v2)
Track 3 accurately ripped (confidence 3) [7E95DC83] (AR v2)
Track 4 accurately ripped (confidence 3) [7CF8BC09] (AR v2)
Track 5 accurately ripped (confidence 3) [859DF4C9] (AR v2)
Track 6 accurately ripped (confidence 3) [E087DA9F] (AR v2)
Track 7 accurately ripped (confidence 2) [B3A57466] (AR v2)
Track 8 accurately ripped (confidence 3) [94475F7A] (AR v2)
Track 9 accurately ripped (confidence 2) [704A737D] (AR v2)
Track 10 accurately ripped (confidence 3) [9BF737EB] (AR v2)
Track 11 accurately ripped (confidence 3) [4441BC01] (AR v2)

All tracks accurately ripped

End of status report

==== Log checksum D10AB7497BC9DD1A085E179D9F3FF3DC634014155101A9CBD99CD51789653E28 ====

REM GENRE Rock
REM DATE 1987
REM DISCID 9C09B00B
REM COMMENT “ExactAudioCopy v1.0b3”
PERFORMER “George Harrison”
TITLE “Cloud Nine (9 25643-2)”
FILE “George Harrison – Cloud Nine (9 25643-2).flac” WAVE
TRACK 01 AUDIO
TITLE “Cloud 9”
PERFORMER “George Harrison”
INDEX 01 00:00:00
TRACK 02 AUDIO
TITLE “That’s What it Takes”
PERFORMER “George Harrison”
INDEX 00 03:13:70
INDEX 01 03:15:60
TRACK 03 AUDIO
TITLE “Fish on the Sand”
PERFORMER “George Harrison”
INDEX 00 07:14:42
INDEX 01 07:16:62
TRACK 04 AUDIO
TITLE “Just for Today”
PERFORMER “George Harrison”
INDEX 00 10:38:45
INDEX 01 10:41:07
TRACK 05 AUDIO
TITLE “This is Love”
PERFORMER “George Harrison”
INDEX 00 14:45:37
INDEX 01 14:47:02
TRACK 06 AUDIO
TITLE “When We was Fab”
PERFORMER “George Harrison”
INDEX 00 18:34:27
INDEX 01 18:36:30
TRACK 07 AUDIO
TITLE “Devil’s Radio”
PERFORMER “George Harrison”
INDEX 00 22:31:37
INDEX 01 22:34:22
TRACK 08 AUDIO
TITLE “Someplace Else”
PERFORMER “George Harrison”
INDEX 00 26:25:42
INDEX 01 26:27:70
TRACK 09 AUDIO
TITLE “Wreck of the Hesperus”
PERFORMER “George Harrison”
INDEX 00 30:18:52
INDEX 01 30:20:50
TRACK 10 AUDIO
TITLE “Breath Away from Heaven”
PERFORMER “George Harrison”
INDEX 00 33:50:35
INDEX 01 33:54:12
TRACK 11 AUDIO
TITLE “Got My Mind Set on You”
PERFORMER “George Harrison”
INDEX 00 37:29:02
INDEX 01 37:30:07


Leave a Reply

Your email address will not be published. Required fields are marked *

Enter the text from the image below
 

This site uses Akismet to reduce spam. Learn how your comment data is processed.