George Harrison – Cloud Nine (Japanese Edition)




No Cover available

Artist: George Harrison
Year: 1987
Genre: Rock
Notes: Discogs
Add. Notes: Japanese Edition
Watch Songs on: YouTube
Cover incl.: Yes
Encoder: FLAC
Bitrate: ~800 kBit/s (44.1 kHz/16 Bit/s)
Log & Cue incl.: Yes/Yes
Size: 267,8 MB
Password: “slam” (without ” “)


All Downloads/Hosters are compatible

Download 1
KatFile.com
Turbobit.net
Rapidgator.net
FileFactory.com
Download 2
KatFile.com
Turbobit.net
Rapidgator.net
FileFactory.com

Tracklist:

1 Cloud 9 3:16
2 That's What It Takes 4:01
3 Fish On The Sand 3:24
4 Just For Today 4:06
5 This Is Love 3:49
6 When We Was Fab 3:58
7 Devil's Radio 3:54
8 Someplace Else 3:53
9 Wreck Of The Hesperus 3:34
10 Breath Away From Heaven 3:36
11 Got My Mind Set On You 3:52

EAC-Log, CUE-Sheed & NFO:

Click to open spoiler
Exact Audio Copy V0.99 prebeta 5 from 4. May 2009

Отчёт EAC об извлечении, выполненном 26. августа 2014, 19:51

George Harrison / Cloud Nine

Дисковод: SONY BD RW BDX-S500U Adapter: 1 ID: 0

Режим чтения : Достоверность
Использование точного потока : Да
Отключение кэша аудио : Да
Использование указателей C2 : Нет

Коррекция смещения при чтении : 48
Способность читать области Lead-in и Lead-out : Нет
Заполнение пропущенных сэмплов тишиной : Да
Удаление блоков с тишиной в начале и конце : Нет
При вычислениях CRC использовались нулевые сэмплы : Да
Интерфейс : Встроенный Win32-интерфейс для Win NT/2000

Выходной формат : Пользовательский кодировщик
Выбранный битрейт : 128 kBit/s
Качество : Высокий
Добавление ID3-тэга : Нет
Утилита сжатия : C:\Program Files (x86)\FLAC\flac.exe

TOC извлечённого CD

Трек | Старт | Длительность | Начальный сектор | Конечный сектор
———————————————————————
1 | 0:00.00 | 3:16.32 | 0 | 14731
2 | 3:16.32 | 4:01.03 | 14732 | 32809
3 | 7:17.35 | 3:24.20 | 32810 | 48129
4 | 10:41.55 | 4:05.70 | 48130 | 66574
5 | 14:47.50 | 3:49.27 | 66575 | 83776
6 | 18:37.02 | 3:57.70 | 83777 | 101621
7 | 22:34.72 | 3:53.48 | 101622 | 119144
8 | 26:28.45 | 3:52.52 | 119145 | 136596
9 | 30:21.22 | 3:33.38 | 136597 | 152609
10 | 33:54.60 | 3:35.70 | 152610 | 168804
11 | 37:30.55 | 3:51.70 | 168805 | 186199

Характеристики диапазона извлечения и сообщения об ошибках

Выбранный диапазон

Имя файла F:\Harrison_CDS\Cloud Nine_JapanCD\George Harrison – Cloud Nine.wav

Пиковый уровень 100.0 %
Качество диапазона 100.0 %
CRC теста A528D56E
CRC копии A528D56E
Копирование… OK

Ошибок не произошло

AccurateRip: сводка

Трек 1 точное извлечение (доверие 12) [82B32127]
Трек 2 точное извлечение (доверие 12) [963D0C05]
Трек 3 точное извлечение (доверие 12) [78AA82F2]
Трек 4 точное извлечение (доверие 12) [8737BE9C]
Трек 5 точное извлечение (доверие 12) [640D647C]
Трек 6 точное извлечение (доверие 12) [A08D8380]
Трек 7 точное извлечение (доверие 12) [C682B668]
Трек 8 точное извлечение (доверие 12) [0DDD4F79]
Трек 9 точное извлечение (доверие 12) [E2CB6805]
Трек 10 точное извлечение (доверие 12) [DEA79B75]
Трек 11 точное извлечение (доверие 12) [A7CAE420]

Все треки извлечены точно

Конец отчёта

REM GENRE Rock
REM DATE 1987
REM DISCID 9809B20B
REM COMMENT “ExactAudioCopy v0.99pb5”
PERFORMER “George Harrison”
TITLE “Cloud Nine”
FILE “George Harrison – Cloud Nine.flac” WAVE
TRACK 01 AUDIO
TITLE “Cloud 9”
PERFORMER “George Harrison”
INDEX 01 00:00:00
TRACK 02 AUDIO
TITLE “That’s What It Takes”
PERFORMER “George Harrison”
INDEX 00 03:15:02
INDEX 01 03:16:32
TRACK 03 AUDIO
TITLE “Fish On The Sand”
PERFORMER “George Harrison”
INDEX 00 07:15:67
INDEX 01 07:17:35
TRACK 04 AUDIO
TITLE “Just For Today”
PERFORMER “George Harrison”
INDEX 00 10:39:47
INDEX 01 10:41:55
TRACK 05 AUDIO
TITLE “This Is Love”
PERFORMER “George Harrison”
INDEX 00 14:46:65
INDEX 01 14:47:50
TRACK 06 AUDIO
TITLE “When We Was Fab”
PERFORMER “George Harrison”
INDEX 00 18:35:40
INDEX 01 18:37:02
TRACK 07 AUDIO
TITLE “Devil’s Radio”
PERFORMER “George Harrison”
INDEX 00 22:32:42
INDEX 01 22:34:72
TRACK 08 AUDIO
TITLE “Someplace Else”
PERFORMER “George Harrison”
INDEX 00 26:26:52
INDEX 01 26:28:45
TRACK 09 AUDIO
TITLE “Wreck Of The Hesperus”
PERFORMER “George Harrison”
INDEX 00 30:19:62
INDEX 01 30:21:22
TRACK 10 AUDIO
TITLE “Breath Away From Heaven”
PERFORMER “George Harrison”
INDEX 00 33:51:40
INDEX 01 33:54:60
TRACK 11 AUDIO
TITLE “Got My Mind Set On You”
PERFORMER “George Harrison”
INDEX 00 37:30:15
INDEX 01 37:30:55


Leave a Reply

Your email address will not be published. Required fields are marked *

Enter the text from the image below
 

This site uses Akismet to reduce spam. Learn how your comment data is processed.