George Harrison – Brainwashed




Artist: George Harrison
Year: 2002
Genre: Rock
Notes: Discogs
Add. Notes:
Cover incl.: Yes
Encoder: FLAC
Bitrate: ~900 kBit/s (44.1 kHz/16 Bit/s)
Log & Cue incl.: Yes
Size: 519 MB
Password: “slam” (without ” “)


All Downloads/Hosters are compatible

Download 1
KatFile.com
Turbobit.net
FileFactory.com
Rapidgator.net
Download 2
KatFile.com
Turbobit.net
FileFactory.com
Rapidgator.net

Tracklist:

1 - Any Road - 3:53
2 - P2 Vatican Blues (Last Saturday 
Night) - 2:38
3 - Pisces Fish - 4:52
4 - Looking For My Life - 3:49
5 - Rising Sun - 5:27
6 - Marwa Blues - 3:41
7 - Stuck Inside A Cloud - 4:04
8 - Run So Far - 4:05
9 - Never Get Over You - 3:25
10 - Between The Devil And The 
Deep Blue Sea - 2:34
11 - Rocking Chair In Hawaii - 3:07
12 - Brainwashed - 6:07

EAC-Log, CUE-Sheed & NFO:

Click to open spoiler
Exact Audio Copy V1.0 beta 3 from 29. August 2011

EAC extraction logfile from 27. July 2014, 20:13

George Harrison / Brainwashed (7243 5 43747 0 8)

Used drive : PLEXTOR DVDR PX-891SA Adapter: 3 ID: 0

Read mode : Secure
Utilize accurate stream : Yes
Defeat audio cache : Yes
Make use of C2 pointers : No

Read offset correction : 6
Overread into Lead-In and Lead-Out : No
Fill up missing offset samples with silence : Yes
Delete leading and trailing silent blocks : No
Null samples used in CRC calculations : Yes
Used interface : Native Win32 interface for Win NT & 2000

Used output format : User Defined Encoder
Selected bitrate : 1024 kBit/s
Quality : High
Add ID3 tag : No
Command line compressor : C:\Program Files\Exact Audio Copy\Flac\flac.exe
Additional command line options : -V -8 -T “Genre=%genre%” -T “Artist=%artist%” -T “Title=%title%” -T “Album=%albumtitle%” -T “Date=%year%” -T “Tracknumber=%tracknr%” -T “Comment=%comment%” %source%

TOC of the extracted CD

Track | Start | Length | Start sector | End sector
———————————————————
1 | 0:00.00 | 3:52.22 | 0 | 17421
2 | 3:52.22 | 2:38.40 | 17422 | 29311
3 | 6:30.62 | 4:52.28 | 29312 | 51239
4 | 11:23.15 | 3:49.27 | 51240 | 68441
5 | 15:12.42 | 5:27.08 | 68442 | 92974
6 | 20:39.50 | 3:41.42 | 92975 | 109591
7 | 24:21.17 | 4:04.63 | 109592 | 127954
8 | 28:26.05 | 4:05.65 | 127955 | 146394
9 | 32:31.70 | 3:25.60 | 146395 | 161829
10 | 35:57.55 | 2:34.60 | 161830 | 173439
11 | 38:32.40 | 3:07.17 | 173440 | 187481
12 | 41:39.57 | 6:07.28 | 187482 | 215034

Range status and errors

Selected range

Filename H:\dafnaplus\2002 George Harrison – Brainwashed\George Harrison – Brainwashed (7243 5 43747 0 8).wav

Peak level 100.0 %
Extraction speed 8.6 X
Range quality 99.9 %
Test CRC B21EFF7B
Copy CRC B21EFF7B
Copy OK

No errors occurred

AccurateRip summary

Track 1 accurately ripped (confidence 77) [ABCE818D] (AR v2)
Track 2 accurately ripped (confidence 77) [76743EC9] (AR v2)
Track 3 accurately ripped (confidence 77) [AE41DB8D] (AR v2)
Track 4 accurately ripped (confidence 76) [B9D5B75D] (AR v2)
Track 5 accurately ripped (confidence 77) [70C68163] (AR v2)
Track 6 accurately ripped (confidence 76) [C957DCB3] (AR v2)
Track 7 accurately ripped (confidence 77) [9C3740BC] (AR v2)
Track 8 accurately ripped (confidence 75) [E41F4A85] (AR v2)
Track 9 accurately ripped (confidence 76) [6B833485] (AR v2)
Track 10 accurately ripped (confidence 77) [45D7ECF1] (AR v2)
Track 11 accurately ripped (confidence 77) [2540328B] (AR v2)
Track 12 accurately ripped (confidence 76) [ECDA8670] (AR v2)

All tracks accurately ripped

End of status report

==== Log checksum F79D79E8DEF2F89F64C75A75BAE1919E584670C61130CE9FDB98CA5DFFACF8EF ====

REM GENRE Rock
REM DATE 2002
REM DISCID 950B330C
REM COMMENT “ExactAudioCopy v1.0b3”
PERFORMER “George Harrison”
TITLE “Brainwashed (7243 5 43747 0 8)”
FILE “George Harrison – Brainwashed (7243 5 43747 0 8).flac” WAVE
TRACK 01 AUDIO
TITLE “Any Road”
PERFORMER “George Harrison”
INDEX 01 00:00:00
TRACK 02 AUDIO
TITLE “P2 Vatican Blues (Last Saturday Night)”
PERFORMER “George Harrison”
INDEX 00 03:51:70
INDEX 01 03:52:22
TRACK 03 AUDIO
TITLE “Pisces Fish”
PERFORMER “George Harrison”
INDEX 01 06:30:62
TRACK 04 AUDIO
TITLE “Looking For My Life”
PERFORMER “George Harrison”
INDEX 00 11:21:30
INDEX 01 11:23:15
TRACK 05 AUDIO
TITLE “The Rising Sun”
PERFORMER “George Harrison”
INDEX 00 15:12:32
INDEX 01 15:12:42
TRACK 06 AUDIO
TITLE “Marwa Blues”
PERFORMER “George Harrison”
INDEX 00 20:39:47
INDEX 01 20:39:50
TRACK 07 AUDIO
TITLE “Stuck Inside A Cloud”
PERFORMER “George Harrison”
INDEX 00 24:20:02
INDEX 01 24:21:17
TRACK 08 AUDIO
TITLE “Run So Far”
PERFORMER “George Harrison”
INDEX 00 28:25:15
INDEX 01 28:26:05
TRACK 09 AUDIO
TITLE “Never Get Over You”
PERFORMER “George Harrison”
INDEX 00 32:31:50
INDEX 01 32:31:70
TRACK 10 AUDIO
TITLE “Between The Devil And The Deep Blue Sea”
PERFORMER “George Harrison”
INDEX 01 35:57:55
TRACK 11 AUDIO
TITLE “Rocking Chair In Hawaii”
PERFORMER “George Harrison”
INDEX 00 38:31:57
INDEX 01 38:32:40
TRACK 12 AUDIO
TITLE “Brainwashed”
PERFORMER “George Harrison”
INDEX 00 41:39:47
INDEX 01 41:39:57


Leave a Reply

Your email address will not be published. Required fields are marked *

Enter the text from the image below
 

This site uses Akismet to reduce spam. Learn how your comment data is processed.