George Harrison – Best Of Dark Horse 1976-1989




Artist: George Harrison
Year: 1989
Genre: Rock
Notes: Discogs
Add. Notes:
Cover incl.: Yes
Encoder: FLAC
Bitrate: ~900 kBit/s (44.1 kHz/16 Bit/s)
Log & Cue incl.: Yes
Size: 423 MB
Password: “slam” (without ” “)


All Downloads/Hosters are compatible

Download 1
KatFile.com
Turbobit.net
FileFactory.com
Rapidgator.net
Download 2
KatFile.com
Turbobit.net
FileFactory.com
Rapidgator.net

Tracklist:

1 - Poor Little Girl - 4:34
2 - Blow Away - 3:59
3 - That's The Way It Goes - 3:33
4 - Cockamamie Business - 5:17
5 - Wake Up My Love - 3:32
6 - Life Itself - 4:25
7 - Got My Mind Set On You - 3:51
8 - Crackerbox Palace - 3:56
9 - Cloud 9 - 3:14
10 - Here Comes The Moon - 4:09
11 - Gone Troppo - 4:24
12 - When We Was Fab - 3:57
13 - Love Comes To Everyone - 3:42
14 - All Those Years Ago - 3:45
15 - Cheer Down - 4:08

EAC-Log, CUE-Sheed & NFO:

Click to open spoiler
Exact Audio Copy V1.0 beta 3 from 29. August 2011

EAC extraction logfile from 27. July 2014, 19:31

George Harrison / Best Of Dark Horse 1976-1989 (W2 25726)

Used drive : PLEXTOR DVDR PX-891SA Adapter: 3 ID: 0

Read mode : Secure
Utilize accurate stream : Yes
Defeat audio cache : Yes
Make use of C2 pointers : No

Read offset correction : 6
Overread into Lead-In and Lead-Out : No
Fill up missing offset samples with silence : Yes
Delete leading and trailing silent blocks : No
Null samples used in CRC calculations : Yes
Used interface : Native Win32 interface for Win NT & 2000

Used output format : User Defined Encoder
Selected bitrate : 1024 kBit/s
Quality : High
Add ID3 tag : No
Command line compressor : C:\Program Files\Exact Audio Copy\Flac\flac.exe
Additional command line options : -V -8 -T “Genre=%genre%” -T “Artist=%artist%” -T “Title=%title%” -T “Album=%albumtitle%” -T “Date=%year%” -T “Tracknumber=%tracknr%” -T “Comment=%comment%” %source%

TOC of the extracted CD

Track | Start | Length | Start sector | End sector
———————————————————
1 | 0:00.00 | 4:33.37 | 0 | 20511
2 | 4:33.37 | 3:59.35 | 20512 | 38471
3 | 8:32.72 | 3:33.38 | 38472 | 54484
4 | 12:06.35 | 5:16.40 | 54485 | 78224
5 | 17:23.00 | 3:32.05 | 78225 | 94129
6 | 20:55.05 | 4:24.52 | 94130 | 113981
7 | 25:19.57 | 3:51.20 | 113982 | 131326
8 | 29:11.02 | 3:56.25 | 131327 | 149051
9 | 33:07.27 | 3:14.08 | 149052 | 163609
10 | 36:21.35 | 4:09.02 | 163610 | 182286
11 | 40:30.37 | 4:24.13 | 182287 | 202099
12 | 44:54.50 | 3:56.72 | 202100 | 219871
13 | 48:51.47 | 3:41.70 | 219872 | 236516
14 | 52:33.42 | 3:44.55 | 236517 | 253371
15 | 56:18.22 | 4:08.15 | 253372 | 271986

Range status and errors

Selected range

Filename H:\dafnaplus\1989 George Harrison – Best Of Dark Horse 1976-1989\George Harrison – Best Of Dark Horse 1976-1989 (W2 25726).wav

Peak level 93.3 %
Extraction speed 8.5 X
Range quality 99.9 %
Test CRC C0FA77BD
Copy CRC C0FA77BD
Copy OK

No errors occurred

AccurateRip summary

Track 1 accurately ripped (confidence 24) [12BF3A0E] (AR v2)
Track 2 accurately ripped (confidence 24) [240811A2] (AR v2)
Track 3 accurately ripped (confidence 24) [0DFD9EC4] (AR v2)
Track 4 accurately ripped (confidence 24) [709097D6] (AR v2)
Track 5 accurately ripped (confidence 23) [277077D7] (AR v2)
Track 6 accurately ripped (confidence 24) [61FD4297] (AR v2)
Track 7 accurately ripped (confidence 24) [BDE90C5F] (AR v2)
Track 8 accurately ripped (confidence 24) [8B4C86AF] (AR v2)
Track 9 accurately ripped (confidence 24) [FEE9DA00] (AR v2)
Track 10 accurately ripped (confidence 24) [B2A2734D] (AR v2)
Track 11 accurately ripped (confidence 24) [64D34C64] (AR v2)
Track 12 accurately ripped (confidence 23) [A9B5C8D4] (AR v2)
Track 13 accurately ripped (confidence 24) [8EF72E66] (AR v2)
Track 14 accurately ripped (confidence 24) [D83CFA52] (AR v2)
Track 15 accurately ripped (confidence 23) [5BC88D3A] (AR v2)

All tracks accurately ripped

End of status report

==== Log checksum E64DDB2B420B97606E217E40B076841B69210B7B1304722A239E87AFC8A8FA52 ====

REM GENRE Rock
REM DATE 1989
REM DISCID D50E2A0F
REM COMMENT “ExactAudioCopy v1.0b3”
PERFORMER “George Harrison”
TITLE “Best Of Dark Horse 1976-1989 (W2 25726)”
FILE “George Harrison – Best Of Dark Horse 1976-1989 (W2 25726).flac” WAVE
TRACK 01 AUDIO
TITLE “Poor Little Girl”
PERFORMER “George Harrison”
INDEX 01 00:00:00
TRACK 02 AUDIO
TITLE “Blow Away”
PERFORMER “George Harrison”
INDEX 00 04:32:64
INDEX 01 04:33:37
TRACK 03 AUDIO
TITLE “That’s The Way It Goes”
PERFORMER “George Harrison”
INDEX 00 08:32:20
INDEX 01 08:32:72
TRACK 04 AUDIO
TITLE “Cockamamie Business”
PERFORMER “George Harrison”
INDEX 00 12:06:34
INDEX 01 12:06:35
TRACK 05 AUDIO
TITLE “Wake Up My Love”
PERFORMER “George Harrison”
INDEX 00 17:21:47
INDEX 01 17:23:00
TRACK 06 AUDIO
TITLE “Life Itself”
PERFORMER “George Harrison”
INDEX 00 20:54:72
INDEX 01 20:55:05
TRACK 07 AUDIO
TITLE “Got My Mind Set On You”
PERFORMER “George Harrison”
INDEX 00 25:18:39
INDEX 01 25:19:57
TRACK 08 AUDIO
TITLE “Crackerbox Palace”
PERFORMER “George Harrison”
INDEX 00 29:10:29
INDEX 01 29:11:02
TRACK 09 AUDIO
TITLE “Cloud 9”
PERFORMER “George Harrison”
INDEX 00 33:06:67
INDEX 01 33:07:27
TRACK 10 AUDIO
TITLE “Here Comes The Moon”
PERFORMER “George Harrison”
INDEX 00 36:21:12
INDEX 01 36:21:35
TRACK 11 AUDIO
TITLE “Gone Troppo”
PERFORMER “George Harrison”
INDEX 00 40:29:72
INDEX 01 40:30:37
TRACK 12 AUDIO
TITLE “When We Was Fab”
PERFORMER “George Harrison”
INDEX 00 44:53:57
INDEX 01 44:54:50
TRACK 13 AUDIO
TITLE “Love Comes To Everyone”
PERFORMER “George Harrison”
INDEX 00 48:50:19
INDEX 01 48:51:47
TRACK 14 AUDIO
TITLE “All Those Years Ago”
PERFORMER “George Harrison”
INDEX 00 52:31:39
INDEX 01 52:33:42
TRACK 15 AUDIO
TITLE “Cheer Down”
PERFORMER “George Harrison”
INDEX 00 56:17:04
INDEX 01 56:18:22


Leave a Reply

Your email address will not be published. Required fields are marked *

Enter the text from the image below
 

This site uses Akismet to reduce spam. Learn how your comment data is processed.