George Harrison – Best Of Dark Horse 1976-1989 (Japanese Edition)




No Cover available

Artist: George Harrison
Year: 1989
Genre: Rock
Notes: Discogs
Add. Notes: Japanese Edition
Watch Songs on: YouTube
Cover incl.: Yes
Encoder: FLAC
Bitrate: ~900 kBit/s (44.1 kHz/16 Bit/s)
Log & Cue incl.: Yes/Yes
Size: 410,1 MB
Password: “slam” (without ” “)


All Downloads/Hosters are compatible

Download 1
KatFile.com
Turbobit.net
FileFactory.com
Rapidgator.net
Download 2
KatFile.com
Turbobit.net
FileFactory.com
Rapidgator.net

Tracklist:

1 Poor Little Girl 4:32
2 Blow Away 3:58
3 That's The Way It Goes 3:34
4 Cockamamie Business 5:14
5 Wake Up My Love 3:32
6 Life Itself 4:24
7 Got My Mind Set On You 3:50
8 Crackerbox Palace 3:56
9 Cloud 9 3:14
10 Here Comes The Moon 4:07
11 Gone Troppo 4:24
12 When We Was Fab 3:56
13 Love Comes To Everyone 3:40
14 All Those Years Ago 3:44
15 Cheer Down 4:07

EAC-Log, CUE-Sheed & NFO:

Click to open spoiler
Exact Audio Copy V0.99 prebeta 5 from 4. May 2009

Отчёт EAC об извлечении, выполненном 26. августа 2014, 20:05

George Harrison / Best Of Dark Horse 1976-1989

Дисковод: SONY BD RW BDX-S500U Adapter: 1 ID: 0

Режим чтения : Достоверность
Использование точного потока : Да
Отключение кэша аудио : Да
Использование указателей C2 : Нет

Коррекция смещения при чтении : 48
Способность читать области Lead-in и Lead-out : Нет
Заполнение пропущенных сэмплов тишиной : Да
Удаление блоков с тишиной в начале и конце : Нет
При вычислениях CRC использовались нулевые сэмплы : Да
Интерфейс : Встроенный Win32-интерфейс для Win NT/2000

Выходной формат : Пользовательский кодировщик
Выбранный битрейт : 128 kBit/s
Качество : Высокий
Добавление ID3-тэга : Нет
Утилита сжатия : C:\Program Files (x86)\FLAC\flac.exe

TOC извлечённого CD

Трек | Старт | Длительность | Начальный сектор | Конечный сектор
———————————————————————
1 | 0:00.00 | 4:34.00 | 0 | 20549
2 | 4:34.00 | 3:59.35 | 20550 | 38509
3 | 8:33.35 | 3:33.40 | 38510 | 54524
4 | 12:07.00 | 5:16.37 | 54525 | 78261
5 | 17:23.37 | 3:32.05 | 78262 | 94166
6 | 20:55.42 | 4:24.53 | 94167 | 114019
7 | 25:20.20 | 3:51.20 | 114020 | 131364
8 | 29:11.40 | 3:56.25 | 131365 | 149089
9 | 33:07.65 | 3:14.10 | 149090 | 163649
10 | 36:22.00 | 4:09.00 | 163650 | 182324
11 | 40:31.00 | 4:24.12 | 182325 | 202136
12 | 44:55.12 | 3:56.73 | 202137 | 219909
13 | 48:52.10 | 3:41.70 | 219910 | 236554
14 | 52:34.05 | 3:44.55 | 236555 | 253409
15 | 56:18.60 | 4:08.65 | 253410 | 272074

Характеристики диапазона извлечения и сообщения об ошибках

Выбранный диапазон

Имя файла F:\Harrison_CDS\Best Of Dark Horse 1976-1989_JapanCD\George Harrison – Best Of Dark Horse 1976-1989.wav

Пиковый уровень 95.5 %
Качество диапазона 100.0 %
CRC теста B07F54EE
CRC копии B07F54EE
Копирование… OK

Ошибок не произошло

AccurateRip: сводка

Трек 1 точное извлечение (доверие 4) [06C1D81B]
Трек 2 точное извлечение (доверие 3) [4EA5372F]
Трек 3 точное извлечение (доверие 4) [1DA99380]
Трек 4 точное извлечение (доверие 3) [A14B0C4F]
Трек 5 точное извлечение (доверие 4) [75893D6F]
Трек 6 точное извлечение (доверие 4) [94D032BB]
Трек 7 точное извлечение (доверие 4) [348E0B5D]
Трек 8 точное извлечение (доверие 4) [4DDD3C81]
Трек 9 точное извлечение (доверие 4) [E83BE045]
Трек 10 точное извлечение (доверие 4) [9CCDEF08]
Трек 11 точное извлечение (доверие 4) [7680403B]
Трек 12 точное извлечение (доверие 4) [5C9D39FA]
Трек 13 точное извлечение (доверие 4) [86F079B5]
Трек 14 точное извлечение (доверие 4) [457962BC]
Трек 15 точное извлечение (доверие 3) [2FDFF49D]

Все треки извлечены точно

Конец отчёта

REM GENRE Rock
REM DATE 1989
REM DISCID DE0E2B0F
REM COMMENT “ExactAudioCopy v0.99pb5”
PERFORMER “George Harrison”
TITLE “Best Of Dark Horse 1976-1989”
FILE “George Harrison – Best Of Dark Horse 1976-1989.flac” WAVE
TRACK 01 AUDIO
TITLE “Poor Little Girl”
PERFORMER “George Harrison”
INDEX 01 00:00:00
TRACK 02 AUDIO
TITLE “Blow Away”
PERFORMER “George Harrison”
INDEX 00 04:33:52
INDEX 01 04:34:00
TRACK 03 AUDIO
TITLE “That’s The Way It Goes”
PERFORMER “George Harrison”
INDEX 00 08:33:07
INDEX 01 08:33:35
TRACK 04 AUDIO
TITLE “Cockamamie Business”
PERFORMER “George Harrison”
INDEX 01 12:07:00
TRACK 05 AUDIO
TITLE “Wake Up My Love”
PERFORMER “George Harrison”
INDEX 00 17:22:15
INDEX 01 17:23:37
TRACK 06 AUDIO
TITLE “Life Itself”
PERFORMER “George Harrison”
INDEX 01 20:55:42
TRACK 07 AUDIO
TITLE “Got My Mind Set On You”
PERFORMER “George Harrison”
INDEX 00 25:19:15
INDEX 01 25:20:20
TRACK 08 AUDIO
TITLE “Crackerbox Palace”
PERFORMER “George Harrison”
INDEX 00 29:11:17
INDEX 01 29:11:40
TRACK 09 AUDIO
TITLE “Cloud 9”
PERFORMER “George Harrison”
INDEX 01 33:07:65
TRACK 10 AUDIO
TITLE “Here Comes The Moon”
PERFORMER “George Harrison”
INDEX 01 36:22:00
TRACK 11 AUDIO
TITLE “Gone Troppo”
PERFORMER “George Harrison”
INDEX 00 40:30:60
INDEX 01 40:31:00
TRACK 12 AUDIO
TITLE “When We Was Fab”
PERFORMER “George Harrison”
INDEX 00 44:54:45
INDEX 01 44:55:12
TRACK 13 AUDIO
TITLE “Love Comes To Everyone”
PERFORMER “George Harrison”
INDEX 00 48:51:07
INDEX 01 48:52:10
TRACK 14 AUDIO
TITLE “All Those Years Ago”
PERFORMER “George Harrison”
INDEX 00 52:32:27
INDEX 01 52:34:05
TRACK 15 AUDIO
TITLE “Cheer Down”
PERFORMER “George Harrison”
INDEX 00 56:17:67
INDEX 01 56:18:60


Leave a Reply

Your email address will not be published. Required fields are marked *

Enter the text from the image below
 

This site uses Akismet to reduce spam. Learn how your comment data is processed.