George Harrison – All Things Must Pass




No Cover available

Artist: George Harrison
Year: 1970/1992
Genre: Rock
Notes: Discogs
Add. Notes:
Watch Songs on: YouTube
Cover incl.: Yes
Encoder: FLAC
Bitrate: ~800 kBit/s (44.1 kHz/16 Bit/s)
Log & Cue incl.: Yes/Yes
Size: 578,1 MB
Password: “slam” (without ” “)


All Downloads/Hosters are compatible

Download 1
KatFile.com
Turbobit.net
FileFactory.com
Rapidgator.net
Download 2
KatFile.com
Turbobit.net
FileFactory.com
Rapidgator.net

Tracklist:

1-1 I'd Have You Anytime 
1-2 My Sweet Lord 
1-3 Wah-Wah 
1-4 Isn't It A Pity (Version One) 
1-5 What Is Life 
1-6 If Not For You 
1-7 Behind That Locked Door 
1-8 Let It Down 
1-9 Run Of The Mill 
1-10 Beware Of Darkness 
1-11 Apple Scruffs 
1-12 Ballad Of Sir Frankie Crisp (Let It Roll) 
1-13 Awaiting On You All 
1-14 All Things Must Pass 

2-1 I Dig Love 
2-2 Art Of Dying 
2-3 Isn't It A Pity (Version Two) 
2-4 Hear Me Lord 
2-5 Out Of The Blue 
2-6 It's Johnny's Birthday 
2-7 Plug Me In 
2-8 I Remember Jeep 
2-9 Thanks For The Pepperoni

EAC-Log, CUE-Sheed & NFO:

Click to open spoiler
Exact Audio Copy V1.0 beta 3 from 29. August 2011

EAC extraction logfile from 16. August 2015, 19:10

George Harrison / All Things Must Pass – Disc One

Used drive : HL-DT-STDVD+-RW GH50N Adapter: 0 ID: 1

Read mode : Secure
Utilize accurate stream : Yes
Defeat audio cache : Yes
Make use of C2 pointers : No

Read offset correction : 667
Overread into Lead-In and Lead-Out : No
Fill up missing offset samples with silence : Yes
Delete leading and trailing silent blocks : No
Null samples used in CRC calculations : Yes
Used interface : Native Win32 interface for Win NT & 2000

Used output format : User Defined Encoder
Selected bitrate : 768 kBit/s
Quality : High
Add ID3 tag : No
Command line compressor : C:\Program Files (x86)\Exact Audio Copy\FLAC\FLAC.EXE
Additional command line options : -V -8 -T “Date=%year%” -T “Genre=%genre%” %source%

TOC of the extracted CD

Track | Start | Length | Start sector | End sector
———————————————————
1 | 0:00.00 | 3:00.10 | 0 | 13509
2 | 3:00.10 | 4:41.32 | 13510 | 34616
3 | 7:41.42 | 5:38.23 | 34617 | 59989
4 | 13:19.65 | 7:10.40 | 59990 | 92279
5 | 20:30.30 | 4:24.30 | 92280 | 112109
6 | 24:54.60 | 3:32.72 | 112110 | 128081
7 | 28:27.57 | 3:09.58 | 128082 | 142314
8 | 31:37.40 | 5:00.35 | 142315 | 164849
9 | 36:38.00 | 2:53.57 | 164850 | 177881
10 | 39:31.57 | 3:49.08 | 177882 | 195064
11 | 43:20.65 | 3:08.42 | 195065 | 209206
12 | 46:29.32 | 3:53.35 | 209207 | 226716
13 | 50:22.67 | 2:50.35 | 226717 | 239501
14 | 53:13.27 | 3:45.10 | 239502 | 256386

Range status and errors

Selected range

Filename C:\222\RUTRA1\1970 -GH – ATMP\CD1\George Harrison – All Things Must Pass – Disc One.wav

Peak level 94.4 %
Extraction speed 3.2 X
Range quality 100.0 %
Test CRC EAD2DBA4
Copy CRC EAD2DBA4
Copy OK

No errors occurred

AccurateRip summary

Track 1 accurately ripped (confidence 11) [C69A8146] (AR v2)
Track 2 accurately ripped (confidence 11) [03EACC36] (AR v2)
Track 3 accurately ripped (confidence 11) [A8F17F03] (AR v2)
Track 4 accurately ripped (confidence 11) [89CC8A95] (AR v2)
Track 5 accurately ripped (confidence 11) [05A4600F] (AR v2)
Track 6 accurately ripped (confidence 11) [F2A6D97E] (AR v2)
Track 7 accurately ripped (confidence 11) [EB13E825] (AR v2)
Track 8 accurately ripped (confidence 11) [698F07A8] (AR v2)
Track 9 accurately ripped (confidence 11) [9E3A4B7A] (AR v2)
Track 10 accurately ripped (confidence 11) [53E6077C] (AR v2)
Track 11 accurately ripped (confidence 11) [49089AE0] (AR v2)
Track 12 accurately ripped (confidence 11) [14EED3F7] (AR v2)
Track 13 accurately ripped (confidence 11) [DFAAC6F0] (AR v2)
Track 14 accurately ripped (confidence 10) [89DFB80B] (AR v2)

All tracks accurately ripped

End of status report

==== Log checksum DF53EE3E0008971A629ECD5A9A962F24B5DDA5434628D94B994EE77ABC96EC0E ====

Exact Audio Copy V1.0 beta 3 from 29. August 2011

EAC extraction logfile from 17. August 2015, 13:35

George Harrison / All Things Must Pass – Disc Two

Used drive : HL-DT-STDVD+-RW GH50N Adapter: 0 ID: 1

Read mode : Secure
Utilize accurate stream : Yes
Defeat audio cache : Yes
Make use of C2 pointers : No

Read offset correction : 667
Overread into Lead-In and Lead-Out : No
Fill up missing offset samples with silence : Yes
Delete leading and trailing silent blocks : No
Null samples used in CRC calculations : Yes
Used interface : Native Win32 interface for Win NT & 2000

Used output format : User Defined Encoder
Selected bitrate : 768 kBit/s
Quality : High
Add ID3 tag : No
Command line compressor : C:\Program Files (x86)\Exact Audio Copy\FLAC\FLAC.EXE
Additional command line options : -V -8 -T “Date=%year%” -T “Genre=%genre%” %source%

TOC of the extracted CD

Track | Start | Length | Start sector | End sector
———————————————————
1 | 0:00.00 | 4:59.40 | 0 | 22464
2 | 4:59.40 | 3:43.27 | 22465 | 39216
3 | 8:42.67 | 4:48.73 | 39217 | 60889
4 | 13:31.65 | 5:49.07 | 60890 | 87071
5 | 19:20.72 | 11:17.35 | 87072 | 137881
6 | 30:38.32 | 0:49.45 | 137882 | 141601
7 | 31:28.02 | 3:22.68 | 141602 | 156819
8 | 34:50.70 | 8:10.15 | 156820 | 193584
9 | 43:01.10 | 5:31.27 | 193585 | 218436

Range status and errors

Selected range

Filename C:\222\RUTRA1\1970 -GH – ATMP\CD2\George Harrison – All Things Must Pass – Disc Two.wav

Peak level 95.1 %
Extraction speed 3.1 X
Range quality 100.0 %
Test CRC C2B34A7C
Copy CRC C2B34A7C
Copy OK

No errors occurred

AccurateRip summary

Track 1 accurately ripped (confidence 13) [2BA550E0] (AR v2)
Track 2 accurately ripped (confidence 12) [6153D274] (AR v2)
Track 3 accurately ripped (confidence 12) [336F58A9] (AR v2)
Track 4 accurately ripped (confidence 12) [447B961D] (AR v2)
Track 5 accurately ripped (confidence 12) [2142EF5B] (AR v2)
Track 6 accurately ripped (confidence 12) [504C827E] (AR v2)
Track 7 accurately ripped (confidence 12) [E0D639A2] (AR v2)
Track 8 accurately ripped (confidence 12) [A1BB3C99] (AR v2)
Track 9 accurately ripped (confidence 12) [EC29BB9C] (AR v2)

All tracks accurately ripped

End of status report

==== Log checksum E0DAB5827EE93A0400B2C5DF38E2BAE1EE42CD6E9C12C99E65B956725337DCBF ====

REM GENRE Rock
REM DATE 1970
REM DISCID B60D5A0E
REM COMMENT “ExactAudioCopy v1.0b3”
PERFORMER “George Harrison”
TITLE “All Things Must Pass – Disc One”
FILE “George Harrison – All Things Must Pass – Disc One.flac” WAVE
TRACK 01 AUDIO
TITLE “I’d Have You Anytime”
PERFORMER “George Harrison”
INDEX 01 00:00:00
TRACK 02 AUDIO
TITLE “My Sweet Lord”
PERFORMER “George Harrison”
INDEX 00 02:56:42
INDEX 01 03:00:10
TRACK 03 AUDIO
TITLE “Wah-Wah”
PERFORMER “George Harrison”
INDEX 00 07:37:62
INDEX 01 07:41:42
TRACK 04 AUDIO
TITLE “Isn’t It A Pity (Version One)”
PERFORMER “George Harrison”
INDEX 00 13:16:17
INDEX 01 13:19:65
TRACK 05 AUDIO
TITLE “What Is Life”
PERFORMER “George Harrison”
INDEX 00 20:27:07
INDEX 01 20:30:30
TRACK 06 AUDIO
TITLE “If Not For You”
PERFORMER “George Harrison”
INDEX 00 24:51:32
INDEX 01 24:54:60
TRACK 07 AUDIO
TITLE “Behind That Locked Door”
PERFORMER “George Harrison”
INDEX 00 28:24:22
INDEX 01 28:27:57
TRACK 08 AUDIO
TITLE “Let It Down”
PERFORMER “George Harrison”
INDEX 00 31:33:05
INDEX 01 31:37:40
TRACK 09 AUDIO
TITLE “Run Of The Mill”
PERFORMER “George Harrison”
INDEX 00 36:35:02
INDEX 01 36:38:00
TRACK 10 AUDIO
TITLE “Beware Of Darkness”
PERFORMER “George Harrison”
INDEX 00 39:28:10
INDEX 01 39:31:57
TRACK 11 AUDIO
TITLE “Apple Scruffs”
PERFORMER “George Harrison”
INDEX 00 43:18:55
INDEX 01 43:20:65
TRACK 12 AUDIO
TITLE “Ballad Of Sir Frankie Crisp (Let It Roll)”
PERFORMER “George Harrison”
INDEX 00 46:25:50
INDEX 01 46:29:32
TRACK 13 AUDIO
TITLE “Awaiting On You All”
PERFORMER “George Harrison”
INDEX 00 50:16:62
INDEX 01 50:22:67
TRACK 14 AUDIO
TITLE “All Things Must Pass”
PERFORMER “George Harrison”
INDEX 00 53:08:62
INDEX 01 53:13:27

REM GENRE Rock
REM DATE 1970
REM DISCID 650B6009
REM COMMENT “ExactAudioCopy v1.0b3”
PERFORMER “George Harrison”
TITLE “All Things Must Pass – Disc Two”
FILE “George Harrison – All Things Must Pass – Disc Two.flac” WAVE
TRACK 01 AUDIO
TITLE “I Dig Love”
PERFORMER “George Harrison”
INDEX 01 00:00:00
TRACK 02 AUDIO
TITLE “Art Of Dying”
PERFORMER “George Harrison”
INDEX 00 04:55:42
INDEX 01 04:59:40
TRACK 03 AUDIO
TITLE “Isn’t It A Pity (Version Two)”
PERFORMER “George Harrison”
INDEX 00 08:38:38
INDEX 01 08:42:67
TRACK 04 AUDIO
TITLE “Hear Me Lord”
PERFORMER “George Harrison”
INDEX 00 13:28:20
INDEX 01 13:31:65
TRACK 05 AUDIO
TITLE “Out Of The Blue”
PERFORMER “George Harrison”
INDEX 00 19:17:15
INDEX 01 19:20:72
TRACK 06 AUDIO
TITLE “It’s Johnny’s Birthday”
PERFORMER “George Harrison”
INDEX 00 30:34:60
INDEX 01 30:38:32
TRACK 07 AUDIO
TITLE “Plug Me In”
PERFORMER “George Harrison”
INDEX 01 31:28:02
TRACK 08 AUDIO
TITLE “I Remember Jeep”
PERFORMER “George Harrison”
INDEX 00 34:46:25
INDEX 01 34:50:70
TRACK 09 AUDIO
TITLE “Thanks For The Pepperoni”
PERFORMER “George Harrison”
INDEX 00 42:57:07
INDEX 01 43:01:10


Leave a Reply

Your email address will not be published. Required fields are marked *

Enter the text from the image below
 

This site uses Akismet to reduce spam. Learn how your comment data is processed.