George Harrison – All Things Must Pass (Remastered)




No Cover available


Artist: George Harrison
Year: 1970/2001
Genre: Rock
Notes: Discogs
Add. Notes: Remastered
Watch Songs on: YouTube
Cover incl.: Yes
Encoder: FLAC
Bitrate: ~900 kBit/s (44.1 kHz/16 Bit/s)
Log & Cue incl.: Yes/Yes
Size: 925,4 MB
Password: “slam” (without ” “)


All Downloads/Hosters are compatible

Download 1
KatFile.com
Turbobit.net
Rapidgator.net
FileFactory.com
Download 2
KatFile.com
Turbobit.net
Rapidgator.net
FileFactory.com

Tracklist:

1-1 I'd Have You Anytime 2:57
1-2 My Sweet Lord 4:37
1-3 Wah-Wah 5:35
1-4 Isn't It A Pity 7:08
1-5 What Is Life 4:22
1-6 If Not For You 3:29
1-7 Behind That Locked Door 3:05
1-8 Let It Down 4:57
1-9 Run Of The Mill 2:51
Additional Tracks:
1-10 I Live For You 3:36
1-11 Beware Of Darkness 3:20
1-12 Let It Down 3:55
1-13 What Is Life 4:22
1-14 My Sweet Lord (2000) 4:58

2-1 Beware Of Darkness 3:48
2-2 Apple Scruffs 3:04
2-3 Ballad Of Sir Frankie Crisp (Let It Roll) 3:46
2-4 Awaiting On You All 2:45
2-5 All Things Must Pass 3:44
2-6 I Dig Love 4:54
2-7 Art Of Dying 3:37
2-8 Isn't It A Pity (Version Two) 4:45
2-9 Hear Me Lord 5:48
Original Jam
2-10 It's Johnny's Birthday 0:49
2-11 Plug Me In 3:18
2-12 I Remember Jeep 8:05
2-13 Thanks For The Pepperoni 5:32
2-14 Out Of The Blue 11:13

EAC-Log, CUE-Sheed & NFO:

Click to open spoiler
Exact Audio Copy V1.0 beta 3 from 29. August 2011

EAC extraction logfile from 27. July 2014, 10:20

George Harrison / All Things Must Pass (Disc 1) (7243 530474 2 9)

Used drive : PLEXTOR DVDR PX-891SA Adapter: 3 ID: 0

Read mode : Secure
Utilize accurate stream : Yes
Defeat audio cache : Yes
Make use of C2 pointers : No

Read offset correction : 6
Overread into Lead-In and Lead-Out : No
Fill up missing offset samples with silence : Yes
Delete leading and trailing silent blocks : No
Null samples used in CRC calculations : Yes
Used interface : Native Win32 interface for Win NT & 2000

Used output format : User Defined Encoder
Selected bitrate : 1024 kBit/s
Quality : High
Add ID3 tag : No
Command line compressor : C:\Program Files\Exact Audio Copy\Flac\flac.exe
Additional command line options : -V -8 -T “Genre=%genre%” -T “Artist=%artist%” -T “Title=%title%” -T “Album=%albumtitle%” -T “Date=%year%” -T “Tracknumber=%tracknr%” -T “Comment=%comment%” %source%

TOC of the extracted CD

Track | Start | Length | Start sector | End sector
———————————————————
1 | 0:00.00 | 3:00.42 | 0 | 13541
2 | 3:00.42 | 4:43.63 | 13542 | 34829
3 | 7:44.30 | 5:39.17 | 34830 | 60271
4 | 13:23.47 | 7:13.10 | 60272 | 92756
5 | 20:36.57 | 4:27.28 | 92757 | 112809
6 | 25:04.10 | 3:33.52 | 112810 | 128836
7 | 28:37.62 | 3:10.20 | 128837 | 143106
8 | 31:48.07 | 5:01.28 | 143107 | 165709
9 | 36:49.35 | 2:52.02 | 165710 | 178611
10 | 39:41.37 | 3:37.40 | 178612 | 194926
11 | 43:19.02 | 3:22.03 | 194927 | 210079
12 | 46:41.05 | 3:55.65 | 210080 | 227769
13 | 50:36.70 | 4:27.20 | 227770 | 247814
14 | 55:04.15 | 4:57.30 | 247815 | 270119

Range status and errors

Selected range

Filename H:\dafnaplus\1970 George Harrison – All Things Must Pass\Disc 1\George Harrison – All Things Must Pass (Disc 1) (7243 530474 2 9).wav

Peak level 99.9 %
Extraction speed 9.3 X
Range quality 100.0 %
Test CRC 4CE7ABC2
Copy CRC 4CE7ABC2
Copy OK

No errors occurred

AccurateRip summary

Track 1 accurately ripped (confidence 103) [24930F18] (AR v2)
Track 2 accurately ripped (confidence 107) [169BA5CC] (AR v2)
Track 3 accurately ripped (confidence 107) [CC1A7D08] (AR v2)
Track 4 accurately ripped (confidence 107) [E41252F1] (AR v2)
Track 5 accurately ripped (confidence 107) [798C713E] (AR v2)
Track 6 accurately ripped (confidence 107) [CFC66C5A] (AR v2)
Track 7 accurately ripped (confidence 107) [CEE56901] (AR v2)
Track 8 accurately ripped (confidence 107) [5B9733A3] (AR v2)
Track 9 accurately ripped (confidence 106) [93C8BBC7] (AR v2)
Track 10 accurately ripped (confidence 107) [7AED5843] (AR v2)
Track 11 accurately ripped (confidence 105) [5561E3D6] (AR v2)
Track 12 accurately ripped (confidence 105) [40EF5C3A] (AR v2)
Track 13 accurately ripped (confidence 106) [512C1492] (AR v2)
Track 14 accurately ripped (confidence 104) [AF288359] (AR v2)

All tracks accurately ripped

End of status report

==== Log checksum CE7F8948EC6DC73C6021E16DF9238413433D8CEEE0DC1C5AA027DDC591919365 ====

Exact Audio Copy V1.0 beta 3 from 29. August 2011

EAC extraction logfile from 27. July 2014, 10:51

George Harrison / All Things Must Pass (Disc 2) (7243 530474 2 9)

Used drive : PLEXTOR DVDR PX-891SA Adapter: 3 ID: 0

Read mode : Secure
Utilize accurate stream : Yes
Defeat audio cache : Yes
Make use of C2 pointers : No

Read offset correction : 6
Overread into Lead-In and Lead-Out : No
Fill up missing offset samples with silence : Yes
Delete leading and trailing silent blocks : No
Null samples used in CRC calculations : Yes
Used interface : Native Win32 interface for Win NT & 2000

Used output format : User Defined Encoder
Selected bitrate : 1024 kBit/s
Quality : High
Add ID3 tag : No
Command line compressor : C:\Program Files\Exact Audio Copy\Flac\flac.exe
Additional command line options : -V -8 -T “Genre=%genre%” -T “Artist=%artist%” -T “Title=%title%” -T “Album=%albumtitle%” -T “Date=%year%” -T “Tracknumber=%tracknr%” -T “Comment=%comment%” %source%

TOC of the extracted CD

Track | Start | Length | Start sector | End sector
———————————————————
1 | 0:00.00 | 3:52.40 | 0 | 17439
2 | 3:52.40 | 3:09.20 | 17440 | 31634
3 | 7:01.60 | 3:52.65 | 31635 | 49099
4 | 10:54.50 | 2:50.55 | 49100 | 61904
5 | 13:45.30 | 3:47.15 | 61905 | 78944
6 | 17:32.45 | 5:00.45 | 78945 | 101489
7 | 22:33.15 | 3:43.55 | 101490 | 118269
8 | 26:16.70 | 4:51.10 | 118270 | 140104
9 | 31:08.05 | 6:00.62 | 140105 | 167166
10 | 37:08.67 | 0:49.35 | 167167 | 170876
11 | 37:58.27 | 3:19.63 | 170877 | 185864
12 | 41:18.15 | 8:09.30 | 185865 | 222569
13 | 49:27.45 | 5:32.35 | 222570 | 247504
14 | 55:00.05 | 11:16.10 | 247505 | 298214

Range status and errors

Selected range

Filename H:\dafnaplus\1970 George Harrison – All Things Must Pass\Disc 2\George Harrison – All Things Must Pass (Disc 2) (7243 530474 2 9).wav

Peak level 99.3 %
Extraction speed 8.8 X
Range quality 99.9 %
Test CRC 875F1147
Copy CRC 875F1147
Copy OK

No errors occurred

AccurateRip summary

Track 1 accurately ripped (confidence 103) [F5EDFDFC] (AR v2)
Track 2 accurately ripped (confidence 105) [82A0D421] (AR v2)
Track 3 accurately ripped (confidence 105) [9611EFB3] (AR v2)
Track 4 accurately ripped (confidence 104) [243E36CA] (AR v2)
Track 5 accurately ripped (confidence 105) [D9654212] (AR v2)
Track 6 accurately ripped (confidence 104) [D98E6A34] (AR v2)
Track 7 accurately ripped (confidence 103) [DCC8E5E2] (AR v2)
Track 8 accurately ripped (confidence 103) [01271C9A] (AR v2)
Track 9 accurately ripped (confidence 104) [4B7F7765] (AR v2)
Track 10 accurately ripped (confidence 106) [3468BDE6] (AR v2)
Track 11 accurately ripped (confidence 104) [A3980981] (AR v2)
Track 12 accurately ripped (confidence 102) [50073947] (AR v2)
Track 13 accurately ripped (confidence 102) [82B673C8] (AR v2)
Track 14 accurately ripped (confidence 95) [3093496F] (AR v2)

All tracks accurately ripped

End of status report

==== Log checksum E9AD033A61492D61F957A1ECCB724B8E1FB2789CEA9C38B66520C2B365396CEC ====

REM GENRE Rock
REM DATE 2001
REM DISCID A70E110E
REM COMMENT “ExactAudioCopy v1.0b3”
PERFORMER “George Harrison”
TITLE “All Things Must Pass (Disc 1) (7243 530474 2 9)”
FILE “George Harrison – All Things Must Pass (Disc 1) (7243 530474 2 9).flac” WAVE
TRACK 01 AUDIO
TITLE “I’d Have You Anytime”
PERFORMER “George Harrison”
INDEX 01 00:00:00
TRACK 02 AUDIO
TITLE “My Sweet Lord”
PERFORMER “George Harrison”
INDEX 00 02:56:35
INDEX 01 03:00:42
TRACK 03 AUDIO
TITLE “Wah-Wah”
PERFORMER “George Harrison”
INDEX 00 07:38:40
INDEX 01 07:44:30
TRACK 04 AUDIO
TITLE “Isn’t It A Pity”
PERFORMER “George Harrison”
INDEX 00 13:19:55
INDEX 01 13:23:47
TRACK 05 AUDIO
TITLE “What Is Life”
PERFORMER “George Harrison”
INDEX 00 20:32:20
INDEX 01 20:36:57
TRACK 06 AUDIO
TITLE “If Not For You”
PERFORMER “George Harrison”
INDEX 00 24:59:00
INDEX 01 25:04:10
TRACK 07 AUDIO
TITLE “Behind That Locked Door”
PERFORMER “George Harrison”
INDEX 00 28:32:62
INDEX 01 28:37:62
TRACK 08 AUDIO
TITLE “Let It Down”
PERFORMER “George Harrison”
INDEX 00 31:43:22
INDEX 01 31:48:07
TRACK 09 AUDIO
TITLE “Run Of The Mill”
PERFORMER “George Harrison”
INDEX 00 36:45:15
INDEX 01 36:49:35
TRACK 10 AUDIO
TITLE “I Live For You (Additional Track)”
PERFORMER “George Harrison”
INDEX 00 39:38:57
INDEX 01 39:41:37
TRACK 11 AUDIO
TITLE “Beware Of Darkness (Additional Track)”
PERFORMER “George Harrison”
INDEX 00 43:17:22
INDEX 01 43:19:02
TRACK 12 AUDIO
TITLE “Let It Down (Additional Track)”
PERFORMER “George Harrison”
INDEX 00 46:38:45
INDEX 01 46:41:05
TRACK 13 AUDIO
TITLE “What Is Life (Additional Track)”
PERFORMER “George Harrison”
INDEX 00 50:35:52
INDEX 01 50:36:70
TRACK 14 AUDIO
TITLE “My Sweet Lord (2000) (Additional Track)”
PERFORMER “George Harrison”
INDEX 01 55:04:15

REM GENRE Rock
REM DATE 2001
REM DISCID B60F880E
REM COMMENT “ExactAudioCopy v1.0b3”
PERFORMER “George Harrison”
TITLE “All Things Must Pass (Disc 2) (7243 530474 2 9)”
FILE “George Harrison – All Things Must Pass (Disc 2) (7243 530474 2 9).flac” WAVE
TRACK 01 AUDIO
TITLE “Beware Of Darkness”
PERFORMER “George Harrison”
INDEX 01 00:00:00
TRACK 02 AUDIO
TITLE “Apple Scruffs”
PERFORMER “George Harrison”
INDEX 00 03:48:55
INDEX 01 03:52:40
TRACK 03 AUDIO
TITLE “Ballad Of Sir Frankie Crisp (Let It Roll)”
PERFORMER “George Harrison”
INDEX 00 06:56:42
INDEX 01 07:01:60
TRACK 04 AUDIO
TITLE “Awaiting On You All”
PERFORMER “George Harrison”
INDEX 00 10:47:72
INDEX 01 10:54:50
TRACK 05 AUDIO
TITLE “All Things Must Pass”
PERFORMER “George Harrison”
INDEX 00 13:39:37
INDEX 01 13:45:30
TRACK 06 AUDIO
TITLE “I Dig Love”
PERFORMER “George Harrison”
INDEX 00 17:29:45
INDEX 01 17:32:45
TRACK 07 AUDIO
TITLE “Art Of Dying”
PERFORMER “George Harrison”
INDEX 00 22:28:10
INDEX 01 22:33:15
TRACK 08 AUDIO
TITLE “Isn’t It A Pity (Version Two)”
PERFORMER “George Harrison”
INDEX 00 26:10:55
INDEX 01 26:16:70
TRACK 09 AUDIO
TITLE “Hear Me Lord”
PERFORMER “George Harrison”
INDEX 00 31:02:45
INDEX 01 31:08:05
TRACK 10 AUDIO
TITLE “It’s Johnny’s Birthday (Original Jam)”
PERFORMER “George Harrison”
INDEX 00 36:54:50
INDEX 01 37:08:67
TRACK 11 AUDIO
TITLE “Plug Me In (Original Jam)”
PERFORMER “George Harrison”
INDEX 01 37:58:27
TRACK 12 AUDIO
TITLE “I Remember Jeep (Original Jam)”
PERFORMER “George Harrison”
INDEX 00 41:16:27
INDEX 01 41:18:15
TRACK 13 AUDIO
TITLE “Thanks For The Pepperoni (Original Jam)”
PERFORMER “George Harrison”
INDEX 00 49:24:65
INDEX 01 49:27:45
TRACK 14 AUDIO
TITLE ” Out Of The Blue (Original Jam)”
PERFORMER “George Harrison”
INDEX 00 54:58:15
INDEX 01 55:00:05


Leave a Reply

Your email address will not be published. Required fields are marked *

Enter the text from the image below
 

This site uses Akismet to reduce spam. Learn how your comment data is processed.