George Harrison – All Things Must Pass (Reissue)




Artist: George Harrison
Year: 1970/1987
Genre: Rock
Notes: Discogs
Add. Notes: Reissue
Cover incl.: Yes
Encoder: FLAC
Bitrate: ~800 kBit/s (44.1 kHz/16 Bit/s)
Log & Cue incl.: Yes
Size: 616 MB
Password: “slam” (without ” “)


All Downloads/Hosters are compatible

Download 1
KatFile.com
Turbobit.net
Rapidgator.net
Download 2
KatFile.com
Turbobit.net
Rapidgator.net

Tracklist:

1-1 - I'd Have You Anytime - 2:59
1-2 - My Sweet Lord - 4:41
1-3 - Wah-Wah - 5:38
1-4 - Isn't It A Pity (Version One) - 
7:11
1-5 - What Is Life - 4:20
1-6 - If Not For You - 3:33
1-7 - Behind That Locked Door - 3:08
1-8 - Let It Down - 4:57
1-9 - Run Of The Mill - 2:53
1-10 - Beware Of Darkness - 3:49
1-11 - Apple Scruffs - 3:09
1-12 - Ballad Of Sir Frankie Crisp (Let 
It Roll) - 3:54
1-13 - Awaiting On You All - 2:50
1-14 - All Things Must Pass - 3:26

2-1 - I Dig Love - 4:59
2-2 - Art Of Dying - 
2-3 - Isn't It A Pity (Version Two) - 
4:47
2-4 - Hear Me Lord - 5:47
2-5 - Out Of The Blue - 11:17
2-6 - It's Johnny's Birthday - 0:50
2-7 - Plug Me In - 3:23
2-8 - I Remember Jeep - 
2-9 - Thanks For The Pepperoni

EAC-Log, CUE-Sheed & NFO:

Click to open spoiler
Exact Audio Copy V0.99 prebeta 5 from 4. May 2009

Отчёт EAC об извлечении, выполненном 19. августа 2014, 13:24

George Harrison / All Things Must Pass (CD1)

Дисковод: SONY BD RW BDX-S500U Adapter: 1 ID: 0

Режим чтения : Достоверность
Использование точного потока : Да
Отключение кэша аудио : Да
Использование указателей C2 : Нет

Коррекция смещения при чтении : 48
Способность читать области Lead-in и Lead-out : Нет
Заполнение пропущенных сэмплов тишиной : Да
Удаление блоков с тишиной в начале и конце : Нет
При вычислениях CRC использовались нулевые сэмплы : Да
Интерфейс : Встроенный Win32-интерфейс для Win NT/2000

Выходной формат : Пользовательский кодировщик
Выбранный битрейт : 128 kBit/s
Качество : Высокий
Добавление ID3-тэга : Нет
Утилита сжатия : C:\Program Files (x86)\FLAC\flac.exe

TOC извлечённого CD

Трек | Старт | Длительность | Начальный сектор | Конечный сектор
———————————————————————
1 | 0:00.33 | 2:58.72 | 33 | 13454
2 | 2:59.30 | 4:41.33 | 13455 | 34562
3 | 7:40.63 | 5:38.22 | 34563 | 59934
4 | 13:19.10 | 7:10.40 | 59935 | 92224
5 | 20:29.50 | 4:19.63 | 92225 | 111712
6 | 24:49.38 | 3:33.22 | 111713 | 127709
7 | 28:22.60 | 3:08.13 | 127710 | 141822
8 | 31:30.73 | 4:57.30 | 141823 | 164127
9 | 36:28.28 | 2:52.67 | 164128 | 177094
10 | 39:21.20 | 3:49.05 | 177095 | 194274
11 | 43:10.25 | 3:08.43 | 194275 | 208417
12 | 46:18.68 | 3:53.40 | 208418 | 225932
13 | 50:12.33 | 2:50.35 | 225933 | 238717
14 | 53:02.68 | 3:45.40 | 238718 | 255632

Характеристики диапазона извлечения и сообщения об ошибках

Выбранный диапазон

Имя файла F:\Harrison_CDS\All Things Must Pass\CD1\George Harrison – All Things Must Pass (CD1).wav

Пиковый уровень 100.0 %
Качество диапазона 100.0 %
CRC теста A7AC648E
CRC копии A7AC648E
Копирование… OK

Ошибок не произошло

AccurateRip: сводка

Трек 1 точное извлечение (доверие 5) [1AAC44FB]
Трек 2 точное извлечение (доверие 7) [5DF34090]
Трек 3 точное извлечение (доверие 7) [609353E0]
Трек 4 точное извлечение (доверие 5) [3F2616B6]
Трек 5 точное извлечение (доверие 7) [63D5443A]
Трек 6 точное извлечение (доверие 7) [0A0DBB35]
Трек 7 точное извлечение (доверие 6) [06A0C90E]
Трек 8 точное извлечение (доверие 5) [BAB1C0C0]
Трек 9 точное извлечение (доверие 5) [78818A53]
Трек 10 точное извлечение (доверие 6) [6D328F07]
Трек 11 точное извлечение (доверие 5) [7F133043]
Трек 12 точное извлечение (доверие 5) [D980E467]
Трек 13 точное извлечение (доверие 5) [F9E7B5EE]
Трек 14 точное извлечение (доверие 6) [20547A4B]

Все треки извлечены точно

Конец отчёта

Exact Audio Copy V0.99 prebeta 5 from 4. May 2009

Отчёт EAC об извлечении, выполненном 19. августа 2014, 13:38

George Harrison / All Things Must Pass (CD 2)

Дисковод: SONY BD RW BDX-S500U Adapter: 1 ID: 0

Режим чтения : Достоверность
Использование точного потока : Да
Отключение кэша аудио : Да
Использование указателей C2 : Нет

Коррекция смещения при чтении : 48
Способность читать области Lead-in и Lead-out : Нет
Заполнение пропущенных сэмплов тишиной : Да
Удаление блоков с тишиной в начале и конце : Нет
При вычислениях CRC использовались нулевые сэмплы : Да
Интерфейс : Встроенный Win32-интерфейс для Win NT/2000

Выходной формат : Пользовательский кодировщик
Выбранный битрейт : 128 kBit/s
Качество : Высокий
Добавление ID3-тэга : Нет
Утилита сжатия : C:\Program Files (x86)\FLAC\flac.exe

TOC извлечённого CD

Трек | Старт | Длительность | Начальный сектор | Конечный сектор
———————————————————————
1 | 0:00.32 | 4:58.65 | 32 | 22446
2 | 4:59.22 | 3:39.60 | 22447 | 38931
3 | 8:39.07 | 4:47.18 | 38932 | 60474
4 | 13:26.25 | 5:46.65 | 60475 | 86489
5 | 19:13.15 | 11:17.35 | 86490 | 137299
6 | 30:30.50 | 0:49.52 | 137300 | 141026
7 | 31:20.27 | 3:22.55 | 141027 | 156231
8 | 34:43.07 | 8:08.25 | 156232 | 192856
9 | 42:51.32 | 5:32.63 | 192857 | 217819

Характеристики диапазона извлечения и сообщения об ошибках

Выбранный диапазон

Имя файла F:\Harrison_CDS\All Things Must Pass\CD2\George Harrison – All Things Must Pass (CD 2).wav

Пиковый уровень 100.0 %
Качество диапазона 100.0 %
CRC теста BC3614C9
CRC копии BC3614C9
Копирование… OK

Ошибок не произошло

AccurateRip: сводка

Трек 1 точное извлечение (доверие 15) [34C1F63D]
Трек 2 точное извлечение (доверие 16) [633C71D8]
Трек 3 точное извлечение (доверие 16) [46EB8929]
Трек 4 точное извлечение (доверие 15) [B5AC9D87]
Трек 5 точное извлечение (доверие 15) [57510E5D]
Трек 6 точное извлечение (доверие 16) [B053524D]
Трек 7 точное извлечение (доверие 15) [2F37710F]
Трек 8 точное извлечение (доверие 16) [3596645F]
Трек 9 точное извлечение (доверие 16) [88599401]

Все треки извлечены точно

Конец отчёта

REM GENRE Rock
REM DATE 1970
REM DISCID AC0D500E
REM COMMENT “ExactAudioCopy v0.99pb5”
PERFORMER “George Harrison”
TITLE “All Things Must Pass (CD1)”
FILE “George Harrison – All Things Must Pass (CD1).flac” WAVE
TRACK 01 AUDIO
TITLE “I’D Have You Anytime”
PERFORMER “George Harrison”
INDEX 00 00:00:00
INDEX 01 00:00:33
TRACK 02 AUDIO
TITLE “My Sweet Lord”
PERFORMER “George Harrison”
INDEX 00 02:55:28
INDEX 01 02:59:30
TRACK 03 AUDIO
TITLE “Wah-Wah”
PERFORMER “George Harrison”
INDEX 00 07:37:10
INDEX 01 07:40:63
TRACK 04 AUDIO
TITLE “Isn’t It A Pity (Version One)”
PERFORMER “George Harrison”
INDEX 00 13:15:38
INDEX 01 13:19:10
TRACK 05 AUDIO
TITLE “What Is Life”
PERFORMER “George Harrison”
INDEX 00 20:26:28
INDEX 01 20:29:50
TRACK 06 AUDIO
TITLE “If Not For You”
PERFORMER “George Harrison”
INDEX 00 24:46:45
INDEX 01 24:49:38
TRACK 07 AUDIO
TITLE “Behind That Locked Door”
PERFORMER “George Harrison”
INDEX 00 28:18:38
INDEX 01 28:22:60
TRACK 08 AUDIO
TITLE “Let It Down”
PERFORMER “George Harrison”
INDEX 00 31:27:50
INDEX 01 31:30:73
TRACK 09 AUDIO
TITLE “Run Of The Mill”
PERFORMER “George Harrison”
INDEX 00 36:25:55
INDEX 01 36:28:28
TRACK 10 AUDIO
TITLE “Beware Of Darkness”
PERFORMER “George Harrison”
INDEX 00 39:19:60
INDEX 01 39:21:20
TRACK 11 AUDIO
TITLE “Apple Scruffs”
PERFORMER “George Harrison”
INDEX 00 43:08:13
INDEX 01 43:10:25
TRACK 12 AUDIO
TITLE “Ballad Of Sir Frankie Crisp (Let It Roll)”
PERFORMER “George Harrison”
INDEX 00 46:15:13
INDEX 01 46:18:68
TRACK 13 AUDIO
TITLE “Awaiting On You All”
PERFORMER “George Harrison”
INDEX 00 50:06:25
INDEX 01 50:12:33
TRACK 14 AUDIO
TITLE “All Things Must Pass”
PERFORMER “George Harrison”
INDEX 00 52:58:25
INDEX 01 53:02:68

REM GENRE Rock
REM DATE 1970
REM DISCID 6B0B5809
REM COMMENT “ExactAudioCopy v0.99pb5”
PERFORMER “George Harrison”
TITLE “All Things Must Pass (CD 2)”
FILE “George Harrison – All Things Must Pass (CD 2).flac” WAVE
TRACK 01 AUDIO
TITLE “I Dig Love”
PERFORMER “George Harrison”
INDEX 00 00:00:00
INDEX 01 00:00:32
TRACK 02 AUDIO
TITLE “Art Of Dying”
PERFORMER “George Harrison”
INDEX 00 04:55:17
INDEX 01 04:59:22
TRACK 03 AUDIO
TITLE “Isn’t It A Pity (Version Two)”
PERFORMER “George Harrison”
INDEX 00 08:35:70
INDEX 01 08:39:07
TRACK 04 AUDIO
TITLE “Hear Me Lord”
PERFORMER “George Harrison”
INDEX 00 13:23:25
INDEX 01 13:26:25
TRACK 05 AUDIO
TITLE “Out Of The Blue”
PERFORMER “George Harrison”
INDEX 00 19:09:32
INDEX 01 19:13:15
TRACK 06 AUDIO
TITLE “It’s Johnny’s Birthday”
PERFORMER “George Harrison”
INDEX 00 30:27:02
INDEX 01 30:30:50
TRACK 07 AUDIO
TITLE “Plug Me In”
PERFORMER “George Harrison”
INDEX 01 31:20:27
TRACK 08 AUDIO
TITLE “I Remember Jeep”
PERFORMER “George Harrison”
INDEX 00 34:38:42
INDEX 01 34:43:07
TRACK 09 AUDIO
TITLE “Thanks For The Pepperoni”
PERFORMER “George Harrison”
INDEX 00 42:48:57
INDEX 01 42:51:32


Leave a Reply

Your email address will not be published. Required fields are marked *

Enter the text from the image below
 

This site uses Akismet to reduce spam. Learn how your comment data is processed.