Geoff Tate – Kings & Thieves




No Cover available

Artist: Geoff Tate
Year: 2012
Genre: Rock
Notes: Discogs
Add. Notes:
Watch Songs on: YouTube
Cover incl.: Yes
Encoder: FLAC
Bitrate: ~1000 kBit/s (44.1 kHz/16 Bit/s)
Log & Cue incl.: Yes/Yes
Size: 405,3 MB
Password: “slam” (without ” “)


All Downloads/Hosters are compatible

Download 1
KatFile.com
Turbobit.net
FileFactory.com
Rapidgator.net
Download 2
KatFile.com
Turbobit.net
FileFactory.com
Rapidgator.net

Tracklist:

1 She Slipped Away 
2 Take A Bullet 
3 In The Dirt 
4 Say U Luv It 
5 The Way I Roll 
6 Tomorrow 
7 Evil 
8 Dark Money 
9 These Glory Days 
10 Change 
11 Waiting

EAC-Log, CUE-Sheed & NFO:

Click to open spoiler
Exact Audio Copy V1.3 from 2. September 2016

EAC extraction logfile from 29. April 2019, 0:05

Geoff Tate / Kings & Thieves (0506162)

Used drive : ASUS DRW-24B1ST Adapter: 1 ID: 1

Read mode : Secure
Utilize accurate stream : Yes
Defeat audio cache : Yes
Make use of C2 pointers : No

Read offset correction : 6
Overread into Lead-In and Lead-Out : No
Fill up missing offset samples with silence : Yes
Delete leading and trailing silent blocks : No
Null samples used in CRC calculations : Yes
Used interface : Native Win32 interface for Win NT & 2000

Used output format : User Defined Encoder
Selected bitrate : 1024 kBit/s
Quality : High
Add ID3 tag : No
Command line compressor : E:\Install\All for Music\Lossless\FLAC_1.3.2\flac-1.3.2-git-20170314-x64-icl\flac.exe
Additional command line options : -V -8 -T “Genre=%genre%” -T “Artist=%artist%” -T “Title=%title%” -T “Album=%albumtitle%” -T “Date=%year%” -T “Tracknumber=%tracknr%” -T “Comment=%comment%” %source%

TOC of the extracted CD

Track | Start | Length | Start sector | End sector
———————————————————
1 | 0:00.00 | 3:37.02 | 0 | 16276
2 | 3:37.02 | 3:47.09 | 16277 | 33310
3 | 7:24.11 | 4:50.14 | 33311 | 55074
4 | 12:14.25 | 4:05.70 | 55075 | 73519
5 | 16:20.20 | 4:46.67 | 73520 | 95036
6 | 21:07.12 | 6:11.45 | 95037 | 122906
7 | 27:18.57 | 3:51.15 | 122907 | 140246
8 | 31:09.72 | 4:25.25 | 140247 | 160146
9 | 35:35.22 | 4:54.22 | 160147 | 182218
10 | 40:29.44 | 6:08.17 | 182219 | 209835
11 | 46:37.61 | 5:29.51 | 209836 | 234561

Range status and errors

Selected range

Filename E:\Ginger Devil\2012 – Kings & Thieves (InsideOut Music, 0506162, E.U.)\Geoff Tate – Kings & Thieves (0506162).wav

Peak level 100.0 %
Extraction speed 4.2 X
Range quality 100.0 %
Test CRC B508F945
Copy CRC B508F945
Copy OK

No errors occurred

AccurateRip summary

Track 1 accurately ripped (confidence 13) [CE919CD6] (AR v2)
Track 2 accurately ripped (confidence 13) [D9696A8F] (AR v2)
Track 3 accurately ripped (confidence 13) [682EDBA7] (AR v2)
Track 4 accurately ripped (confidence 13) [F513A89B] (AR v2)
Track 5 accurately ripped (confidence 13) [2BB9A84E] (AR v2)
Track 6 accurately ripped (confidence 13) [18D454A5] (AR v2)
Track 7 accurately ripped (confidence 13) [7D94562D] (AR v2)
Track 8 accurately ripped (confidence 13) [D1CFFD7A] (AR v2)
Track 9 accurately ripped (confidence 13) [DED59ADF] (AR v2)
Track 10 accurately ripped (confidence 13) [52343531] (AR v2)
Track 11 accurately ripped (confidence 13) [88E447CF] (AR v2)

All tracks accurately ripped

End of status report

—- CUETools DB Plugin V2.1.6

[CTDB TOCID: 5G6ofphY4stvh5pKR7dHOyJM_cg-] found
Submit result: 5G6ofphY4stvh5pKR7dHOyJM_cg- has been confirmed
Track | CTDB Status
1 | (16/16) Accurately ripped
2 | (16/16) Accurately ripped
3 | (16/16) Accurately ripped
4 | (16/16) Accurately ripped
5 | (16/16) Accurately ripped
6 | (16/16) Accurately ripped
7 | (16/16) Accurately ripped
8 | (16/16) Accurately ripped
9 | (16/16) Accurately ripped
10 | (16/16) Accurately ripped
11 | (16/16) Accurately ripped

==== Log checksum 133B062931D2514CBD48B2AEC626F41B3AD40EF280C114A32882E184435D3C5D ====

REM GENRE Rock
REM DATE 2012
REM DISCID 9F0C370B
REM COMMENT “ExactAudioCopy v1.3”
PERFORMER “Geoff Tate”
TITLE “Kings & Thieves (0506162)”
REM COMPOSER “Geoff Tate”
FILE “Geoff Tate – Kings & Thieves (0506162).flac” WAVE
TRACK 01 AUDIO
TITLE “She Slipped Away”
PERFORMER “Geoff Tate”
REM COMPOSER “Geoff Tate”
INDEX 01 00:00:00
TRACK 02 AUDIO
TITLE “Take A Bullet”
PERFORMER “Geoff Tate”
REM COMPOSER “Geoff Tate”
INDEX 00 03:36:51
INDEX 01 03:37:02
TRACK 03 AUDIO
TITLE “In The Dirt”
PERFORMER “Geoff Tate”
REM COMPOSER “Geoff Tate”
INDEX 00 07:22:10
INDEX 01 07:24:11
TRACK 04 AUDIO
TITLE “Say U Luv It”
PERFORMER “Geoff Tate”
REM COMPOSER “Geoff Tate”
INDEX 00 12:12:42
INDEX 01 12:14:25
TRACK 05 AUDIO
TITLE “The Way I Roll”
PERFORMER “Geoff Tate”
REM COMPOSER “Geoff Tate”
INDEX 00 16:18:09
INDEX 01 16:20:20
TRACK 06 AUDIO
TITLE “Tomorrow”
PERFORMER “Geoff Tate”
REM COMPOSER “Geoff Tate”
INDEX 00 21:04:22
INDEX 01 21:07:12
TRACK 07 AUDIO
TITLE “Evil”
PERFORMER “Geoff Tate”
REM COMPOSER “Geoff Tate”
INDEX 00 27:18:53
INDEX 01 27:18:57
TRACK 08 AUDIO
TITLE “Dark Money”
PERFORMER “Geoff Tate”
REM COMPOSER “Geoff Tate”
INDEX 00 31:07:73
INDEX 01 31:09:72
TRACK 09 AUDIO
TITLE “These Glory Days”
PERFORMER “Geoff Tate”
REM COMPOSER “Geoff Tate”
INDEX 00 35:33:28
INDEX 01 35:35:22
TRACK 10 AUDIO
TITLE “Change”
PERFORMER “Geoff Tate”
REM COMPOSER “Geoff Tate”
INDEX 00 40:27:18
INDEX 01 40:29:44
TRACK 11 AUDIO
TITLE “Waiting”
PERFORMER “Geoff Tate”
REM COMPOSER “Geoff Tate”
INDEX 00 46:36:39
INDEX 01 46:37:61


Leave a Reply

Your email address will not be published. Required fields are marked *

Enter the text from the image below
 

This site uses Akismet to reduce spam. Learn how your comment data is processed.