Genesis – Wind & Wuthering (Reissue)




Artist: Genesis
Year: 1976/1987
Genre: Rock
Notes: Discogs
Add. Notes: Reissue
Cover incl.: Yes
Encoder: FLAC
Bitrate: ~800 kBit/s (44.1 kHz/16 Bit/s)
Log & Cue incl.: Yes
Size: 337,1 MB
Password: “slam” (without ” “)


All Downloads/Hosters are compatible

Download 1
KatFile.com
Turbobit.net
FileFactory.com
Rapidgator.net
Download 2
KatFile.com
Turbobit.net
FileFactory.com
Rapidgator.net

Tracklist:

1 - Eleventh Earl Of Mar - 7:45
2 - One For The Vine - 10:00
3 - Your Own Special Way - 6:18
4 - Wot Gorilla? - 3:22
5 - All In A Mouse's Night - 6:39
6 - Blood On The Rooftops - 5:28
7 - A. 'Unquiet Slumbers For The Sleepers... B. ...In That 
Quiet Earth' - 7:13
8 - Afterglow - 4:10

EAC-Log, CUE-Sheed & NFO:

Click to open spoiler
Exact Audio Copy V1.0 beta 3 from 29. August 2011

Отчёт EAC об извлечении, выполненном 25. апреля 2013, 18:17

Genesis / Wind & Wuthering

Дисковод: SONY CD-RW CRX230ED Adapter: 0 ID: 1

Режим чтения : Достоверность
Использование точного потока : Да
Отключение кэша аудио : Да
Использование указателей C2 : Нет

Коррекция смещения при чтении : 6
Способность читать области Lead-in и Lead-out : Нет
Заполнение пропущенных сэмплов тишиной : Да
Удаление блоков с тишиной в начале и конце : Нет
При вычислениях CRC использовались нулевые сэмплы : Да
Интерфейс : Установленный внешний ASPI-интерфейс

Выходной формат : Внутренние WAV-операции
Формат сэмплов : 44.100 Гц; 16 бит; стерео

TOC извлечённого CD

Трек | Старт | Длительность | Начальный сектор | Конечный сектор
———————————————————————
1 | 0:00.33 | 7:44.20 | 33 | 34852
2 | 7:44.53 | 10:00.37 | 34853 | 79889
3 | 17:45.15 | 6:18.63 | 79890 | 108302
4 | 24:04.03 | 3:20.70 | 108303 | 123372
5 | 27:24.73 | 6:39.02 | 123373 | 153299
6 | 34:04.00 | 5:27.60 | 153300 | 177884
7 | 39:31.60 | 7:12.63 | 177885 | 210347
8 | 46:44.48 | 4:13.50 | 210348 | 229372

Характеристики диапазона извлечения и сообщения об ошибках

Выбранный диапазон

Имя файла E:\MusicCD\Genesis – Wind & Wuthering\Genesis – Wind & Wuthering.wav

Пиковый уровень 87.1 %
Скорость извлечения 7.7 X
Качество диапазона 100.0 %
CRC теста 9D5EC827
CRC копии 9D5EC827
Копирование… OK

Ошибок не произошло

AccurateRip: сводка

Трек 1 : извлечено точно (доверие 4) [7C1F200C] (AR v2)
Трек 2 : извлечено точно (доверие 3) [F0681712] (AR v2)
Трек 3 : извлечено точно (доверие 3) [C92A3C35] (AR v2)
Трек 4 : извлечено точно (доверие 3) [E16DDA51] (AR v2)
Трек 5 : извлечено точно (доверие 3) [CB1E56B0] (AR v2)
Трек 6 : извлечено точно (доверие 3) [672223A9] (AR v2)
Трек 7 : извлечено точно (доверие 3) [66B8D469] (AR v2)
Трек 8 : извлечено точно (доверие 3) [268C079C] (AR v2)

Все треки извлечены точно

Конец отчёта

==== Контрольная сумма отчёта 287296BCA8DBBD46B6F6C24295100DF5B0508F399A24120A44C377BC5269AA8F ====

REM GENRE Rock
REM DATE 1976
REM DISCID 6B0BF208
REM COMMENT “ExactAudioCopy v1.0b3”
PERFORMER “Genesis”
TITLE “Wind & Wuthering”
FILE “Genesis – Wind & Wuthering.flac” WAVE
TRACK 01 AUDIO
TITLE “Eleventh Earl Of Mar”
PERFORMER “Genesis”
INDEX 00 00:00:00
INDEX 01 00:00:33
TRACK 02 AUDIO
TITLE “One For The Vine”
PERFORMER “Genesis”
INDEX 00 07:42:03
INDEX 01 07:44:53
TRACK 03 AUDIO
TITLE “Your Own Special Way”
PERFORMER “Genesis”
INDEX 01 17:45:15
TRACK 04 AUDIO
TITLE “Wot Gorilla?”
PERFORMER “Genesis”
INDEX 01 24:04:03
TRACK 05 AUDIO
TITLE “All In A Mouse’s Night”
PERFORMER “Genesis”
INDEX 00 27:23:40
INDEX 01 27:24:73
TRACK 06 AUDIO
TITLE “Blood On The Rooftops”
PERFORMER “Genesis”
INDEX 00 34:02:55
INDEX 01 34:04:00
TRACK 07 AUDIO
TITLE “‘Unquiet Slumbers For The Sleepers… In That Quiet Earth'”
PERFORMER “Genesis”
INDEX 00 39:31:48
INDEX 01 39:31:60
INDEX 02 41:59:45
TRACK 08 AUDIO
TITLE “Afterglow”
PERFORMER “Genesis”
INDEX 01 46:44:48


1 thought on “Genesis – Wind & Wuthering (Reissue)

Leave a Reply

Your email address will not be published. Required fields are marked *

This site uses Akismet to reduce spam. Learn how your comment data is processed.