Genesis – Wind & Wuthering (Japanese Edition)




Artist: Genesis
Year: 1976/1986
Genre: Rock
Notes: Discogs
Add. Notes: Japanese Edition
Encoder: FLAC
Bitrate: ~800 kBit/s (44.1 kHz/16 Bit/s)
Size: 353,69 MB
Password: “slam” (without ” “)


Crypted via FileCrypt.cc:

Tracklist:

1 - Eleventh Earl Of Mar - 7:43
2 - One For The Vine - 10:00
3 - Your Own Special Way - 6:18
4 - Wot Gorilla - 3:20
5 - All In A Mouse's Night - 6:39
6 - Blood On The Rooftops - 5:27
7 - 'Unquiet Slumber For The Sleepers ....'.. - 2:28
8 - ...In That Quiet Earth - 4:45
9 - Afterglow - 4:13

EAC-Log, CUE-Sheed & NFO:

Click to open spoiler
Exact Audio Copy V0.99 prebeta 5 from 4. May 2009

EAC extraction logfile from 27. November 2011, 20:07

Genesis / Wind and wuthering.32VD-1033.Japan

Used drive : PLEXTOR CD-R PREMIUM2 Adapter: 0 ID: 1

Read mode : Secure
Utilize accurate stream : Yes
Defeat audio cache : Yes
Make use of C2 pointers : No

Read offset correction : 30
Overread into Lead-In and Lead-Out : No
Fill up missing offset samples with silence : Yes
Delete leading and trailing silent blocks : No
Null samples used in CRC calculations : Yes
Used interface : Installed external ASPI interface

Used output format : User Defined Encoder
Selected bitrate : 768 kBit/s
Quality : High
Add ID3 tag : No
Command line compressor : C:\Program Files\Exact Audio Copy\FLAC\FLAC.EXE
Additional command line options : -6 -V -T “ARTIST=%a” -T “TITLE=%t” -T “ALBUM=%g” -T “DATE=%y” -T “TRACKNUMBER=%n” -T “GENRE=%m” -T “COMMENT=%e” %s -o %d

TOC of the extracted CD

Track | Start | Length | Start sector | End sector
———————————————————
1 | 0:00.00 | 7:44.22 | 0 | 34821
2 | 7:44.22 | 10:00.65 | 34822 | 79886
3 | 17:45.12 | 6:18.60 | 79887 | 108296
4 | 24:03.72 | 3:20.38 | 108297 | 123334
5 | 27:24.35 | 6:39.07 | 123335 | 153266
6 | 34:03.42 | 5:27.55 | 153267 | 177846
7 | 39:31.22 | 2:28.15 | 177847 | 188961
8 | 41:59.37 | 4:45.00 | 188962 | 210336
9 | 46:44.37 | 4:13.18 | 210337 | 229329

Range status and errors

Selected range

Filename H:\Temp\Genesis\Wind And Wuthering.1976.32VD-1033.Toshiba-EMI.Japan\Genesis – Wind and wuthering.32VD-1033.Japan.wav

Peak level 97.0 %
Range quality 100.0 %
Test CRC 1364194B
Copy CRC 1364194B
Copy OK

No errors occurred

AccurateRip summary

Track 1 accurately ripped (confidence 2) [45D91FAE]
Track 2 accurately ripped (confidence 2) [E0AC4ED5]
Track 3 accurately ripped (confidence 2) [67E79B5E]
Track 4 accurately ripped (confidence 2) [DAA74C19]
Track 5 accurately ripped (confidence 2) [B032E248]
Track 6 accurately ripped (confidence 2) [6AAF466C]
Track 7 accurately ripped (confidence 2) [78651C12]
Track 8 accurately ripped (confidence 2) [C572565B]
Track 9 accurately ripped (confidence 2) [05DE42FC]

All tracks accurately ripped

End of status report

REM GENRE “Progressive Rock”
REM DATE 1976
REM DISCID 730BF109
REM COMMENT “ExactAudioCopy v0.99pb5”
PERFORMER “Genesis”
TITLE “Wind and wuthering.32VD-1033.Japan”
FILE “Genesis – Wind and wuthering.32VD-1033.Japan.flac” WAVE
TRACK 01 AUDIO
TITLE “Eleventh earl of mar”
PERFORMER “Genesis”
INDEX 01 00:00:00
TRACK 02 AUDIO
TITLE “One for the vine”
PERFORMER “Genesis”
INDEX 00 07:43:00
INDEX 01 07:44:22
TRACK 03 AUDIO
TITLE “Your own special way”
PERFORMER “Genesis”
INDEX 01 17:45:12
TRACK 04 AUDIO
TITLE “Wot gorilla?”
PERFORMER “Genesis”
INDEX 01 24:03:72
TRACK 05 AUDIO
TITLE “All in a mouse´s night”
PERFORMER “Genesis”
INDEX 01 27:24:35
TRACK 06 AUDIO
TITLE “Blood on the rooftops”
PERFORMER “Genesis”
INDEX 01 34:03:42
TRACK 07 AUDIO
TITLE “‘Unquiet slumbers for the sleepers …”
PERFORMER “Genesis”
INDEX 01 39:31:22
TRACK 08 AUDIO
TITLE “… in that quiet earth´”
PERFORMER “Genesis”
INDEX 01 41:59:37
TRACK 09 AUDIO
TITLE “Afterglow”
PERFORMER “Genesis”
INDEX 01 46:44:37

Leave a Reply

Your email address will not be published. Required fields are marked *

This site uses Akismet to reduce spam. Learn how your comment data is processed.