Genesis – We Can’t Dance




Artist: Genesis
Year: 1991
Genre: Rock
Notes: Discogs
Add. Notes:
Cover incl.: Yes
Encoder: FLAC
Bitrate: ~900 kBit/s (44.1 kHz/16 Bit/s)
Log & Cue incl.: Yes
Size: 646,4 MB
Password: “slam” (without ” “)


All Downloads/Hosters are compatible

Download 1
Turbobit.net
Rapidgator.net
KatFile.com
UploadRar.com
Download 2
Turbobit.net
Rapidgator.net
KatFile.com
UploadRar.com
Download 3
Turbobit.net
Rapidgator.net
KatFile.com
UploadRar.com

Tracklist:

1 - No Son Of Mine - 6:39
2 - Jesus He Knows Me - 4:16
3 - Driving The Last Spike - 10:08
4 - I Can't Dance - 4:01
5 - Never A Time - 3:50
6 - Dreaming While You Sleep - 7:16
7 - Tell Me Why - 4:58
8 - Living Forever - 5:40
9 - Hold On My Heart - 4:38
10 - Way Of The World - 5:39
11 - Since I Lost You - 4:09
12 - Fading Lights - 10:16

EAC-Log, CUE-Sheed & NFO:

Click to open spoiler
Exact Audio Copy V1.0 beta 3 from 29. August 2011

EAC extraction logfile from 11. October 2015, 16:14

Genesis / We Can’t Dance

Used drive : PLEXTOR DVDR PX-L890SA Adapter: 3 ID: 1

Read mode : Secure
Utilize accurate stream : Yes
Defeat audio cache : Yes
Make use of C2 pointers : No

Read offset correction : 6
Overread into Lead-In and Lead-Out : No
Fill up missing offset samples with silence : Yes
Delete leading and trailing silent blocks : No
Null samples used in CRC calculations : Yes
Used interface : Native Win32 interface for Win NT & 2000

Used output format : User Defined Encoder
Selected bitrate : 768 kBit/s
Quality : High
Add ID3 tag : No
Command line compressor : C:\Program Files (x86)\Exact Audio Copy\Flac\flac.exe
Additional command line options : -V -8 -T “Date=%year%” -T “Genre=%genre%” %source%

TOC of the extracted CD

Track | Start | Length | Start sector | End sector
———————————————————
1 | 0:00.33 | 6:39.67 | 33 | 30024
2 | 6:40.25 | 4:16.33 | 30025 | 49257
3 | 10:56.58 | 10:08.52 | 49258 | 94909
4 | 21:05.35 | 4:01.03 | 94910 | 112987
5 | 25:06.38 | 3:50.32 | 112988 | 130269
6 | 28:56.70 | 7:16.60 | 130270 | 163029
7 | 36:13.55 | 4:58.73 | 163030 | 185452
8 | 41:12.53 | 5:40.70 | 185453 | 211022
9 | 46:53.48 | 4:38.02 | 211023 | 231874
10 | 51:31.50 | 5:39.05 | 231875 | 257304
11 | 57:10.55 | 4:09.50 | 257305 | 276029
12 | 61:20.30 | 10:16.50 | 276030 | 322279

Range status and errors

Selected range

Filename H:\MUSIC\1991. Genesis – We Can’t Dance (Virgin 262 082 , Germany)\Genesis – We Can’t Dance.wav

Peak level 97.3 %
Extraction speed 9.9 X
Range quality 99.9 %
Test CRC 308E302C
Copy CRC 308E302C
Copy OK

No errors occurred

AccurateRip summary

Track 1 accurately ripped (confidence 74) [F95CA031] (AR v2)
Track 2 accurately ripped (confidence 75) [62D4F2C6] (AR v2)
Track 3 accurately ripped (confidence 73) [9A21504D] (AR v2)
Track 4 accurately ripped (confidence 75) [6E2FCB8C] (AR v2)
Track 5 accurately ripped (confidence 75) [831D9DF8] (AR v2)
Track 6 accurately ripped (confidence 74) [1255DB8C] (AR v2)
Track 7 accurately ripped (confidence 75) [92CF2537] (AR v2)
Track 8 accurately ripped (confidence 73) [08C24E2C] (AR v2)
Track 9 accurately ripped (confidence 74) [C30402DE] (AR v2)
Track 10 accurately ripped (confidence 73) [F72EB683] (AR v2)
Track 11 accurately ripped (confidence 74) [438F10CF] (AR v2)
Track 12 accurately ripped (confidence 75) [A0D97CB7] (AR v2)

All tracks accurately ripped

End of status report

==== Log checksum 8797E7853A7B7890899D0D83FD7C7020B955920CCCEB016A4FC6B9A02B097CDE ====

REM GENRE Rock
REM DATE 1991
REM DISCID AA10C90C
REM COMMENT “ExactAudioCopy v1.0b3”
PERFORMER “Genesis”
TITLE “We Can’t Dance”
FILE “Genesis – We Can’t Dance.flac” WAVE
TRACK 01 AUDIO
TITLE “No Son Of Mine”
PERFORMER “Genesis”
INDEX 00 00:00:00
INDEX 01 00:00:33
TRACK 02 AUDIO
TITLE “Jesus He Knows Me”
PERFORMER “Genesis”
INDEX 01 06:40:25
TRACK 03 AUDIO
TITLE “Driving The Last Spike”
PERFORMER “Genesis”
INDEX 01 10:56:58
TRACK 04 AUDIO
TITLE “I Can’t Dance”
PERFORMER “Genesis”
INDEX 01 21:05:35
TRACK 05 AUDIO
TITLE “Never A Time”
PERFORMER “Genesis”
INDEX 01 25:06:38
TRACK 06 AUDIO
TITLE “Dreaming While You Sleep”
PERFORMER “Genesis”
INDEX 00 28:55:43
INDEX 01 28:56:70
TRACK 07 AUDIO
TITLE “Tell Me Why”
PERFORMER “Genesis”
INDEX 00 36:12:28
INDEX 01 36:13:55
TRACK 08 AUDIO
TITLE “Living Forever”
PERFORMER “Genesis”
INDEX 00 41:12:20
INDEX 01 41:12:53
TRACK 09 AUDIO
TITLE “Hold On My Heart”
PERFORMER “Genesis”
INDEX 01 46:53:48
TRACK 10 AUDIO
TITLE “Way Of The World”
PERFORMER “Genesis”
INDEX 01 51:31:50
TRACK 11 AUDIO
TITLE “Since I Lost You”
PERFORMER “Genesis”
INDEX 00 57:09:63
INDEX 01 57:10:55
TRACK 12 AUDIO
TITLE “Fading Lights”
PERFORMER “Genesis”
INDEX 01 61:20:30


Leave a Reply

Your email address will not be published. Required fields are marked *

Enter the text from the image below
 

This site uses Akismet to reduce spam. Learn how your comment data is processed.