Genesis – We Can’t Dance (Club Edition)




No Cover available

Artist: Genesis
Year: 1991
Genre: Rock
Notes: Discogs
Add. Notes: Club Edition
Watch Songs on: YouTube
Cover incl.: Yes
Encoder: FLAC
Bitrate: ~800 kBit/s (44.1 kHz/16 Bit/s)
Log & Cue incl.: Yes/Yes
Size: 607,8 MB
Password: “slam” (without ” “)


All Downloads/Hosters are compatible

Download 1
KatFile.com
Turbobit.net
FileFactory.com
Rapidgator.net
Download 2
KatFile.com
Turbobit.net
FileFactory.com
Rapidgator.net

Tracklist:

1 - No Son Of Mine - 6:39
2 - Jesus He Knows Me - 4:16
3 - Driving The Last Spike - 10:08
4 - I Can't Dance - 4:01
5 - Never A Time - 3:50
6 - Dreaming While You Sleep - 7:16
7 - Tell Me Why - 4:58
8 - Living Forever - 5:40
9 - Hold On My Heart - 4:38
10 - Way Of The World - 5:39
11 - Since I Lost You - 4:09
12 - Fading Lights - 10:16

EAC-Log, CUE-Sheed & NFO:

Click to open spoiler
Exact Audio Copy V1.0 beta 3 from 29. August 2011

EAC extraction logfile from 17. January 2014, 13:42

Genesis / We Can’t Dance

Used drive : LITE-ON DVDRW LH-20A1L Adapter: 7 ID: 0

Read mode : Secure
Utilize accurate stream : Yes
Defeat audio cache : Yes
Make use of C2 pointers : No

Read offset correction : 6
Overread into Lead-In and Lead-Out : No
Fill up missing offset samples with silence : Yes
Delete leading and trailing silent blocks : No
Null samples used in CRC calculations : Yes
Used interface : Installed external ASPI interface

Used output format : Internal WAV Routines
Sample format : 44.100 Hz; 16 Bit; Stereo

TOC of the extracted CD

Track | Start | Length | Start sector | End sector
———————————————————
1 | 0:00.00 | 6:39.15 | 0 | 29939
2 | 6:39.15 | 4:16.35 | 29940 | 49174
3 | 10:55.50 | 10:08.50 | 49175 | 94824
4 | 21:04.25 | 4:01.05 | 94825 | 112904
5 | 25:05.30 | 3:50.32 | 112905 | 130186
6 | 28:55.62 | 7:16.60 | 130187 | 162946
7 | 36:12.47 | 4:58.73 | 162947 | 185369
8 | 41:11.45 | 5:41.02 | 185370 | 210946
9 | 46:52.47 | 4:38.03 | 210947 | 231799
10 | 51:30.50 | 5:38.72 | 231800 | 257221
11 | 57:09.47 | 4:09.58 | 257222 | 275954
12 | 61:19.30 | 10:16.60 | 275955 | 322214

Range status and errors

Selected range

Filename Z:\data\hexonut\Seeding\Genesis-1991-We Can’t Dance [Atlantic, US, A2-82344]\We Can’t Dance (A2 82344).wav

Peak level 97.3 %
Extraction speed 10.1 X
Range quality 100.0 %
Test CRC A7DABB5C
Copy CRC A7DABB5C
Copy OK

No errors occurred

AccurateRip summary

Track 1 accurately ripped (confidence 14) [B7C3634E] (AR v2)
Track 2 accurately ripped (confidence 14) [EBB93051] (AR v2)
Track 3 accurately ripped (confidence 14) [345E219F] (AR v2)
Track 4 accurately ripped (confidence 14) [C689052C] (AR v2)
Track 5 accurately ripped (confidence 14) [BBB2A107] (AR v2)
Track 6 accurately ripped (confidence 14) [7C4629E3] (AR v2)
Track 7 accurately ripped (confidence 14) [01489632] (AR v2)
Track 8 accurately ripped (confidence 14) [155863A0] (AR v2)
Track 9 accurately ripped (confidence 14) [DCC26005] (AR v2)
Track 10 accurately ripped (confidence 14) [15980E57] (AR v2)
Track 11 accurately ripped (confidence 14) [62281F95] (AR v2)
Track 12 accurately ripped (confidence 13) [29AA5BD4] (AR v2)

All tracks accurately ripped

End of status report

==== Log checksum 6CA9E9AAD2E73B528FB08EBADF07C99813284A6F35D7A87B9B4FE1BF16233C67 ====

REM GENRE Rock
REM DATE 1991
REM DISCID 9F10C80C
REM COMMENT “ExactAudioCopy v1.0b3”
CATALOG 0075678234422
PERFORMER “Genesis”
TITLE “We Can’t Dance”
FILE “We Can’t Dance (A2 82344).wav” WAVE
TRACK 01 AUDIO
TITLE “No Son of Mine”
PERFORMER “Genesis”
INDEX 01 00:00:00
TRACK 02 AUDIO
TITLE “Jesus He Knows Me”
PERFORMER “Genesis”
INDEX 00 06:35:49
INDEX 01 06:39:15
TRACK 03 AUDIO
TITLE “Driving the Last Spike”
PERFORMER “Genesis”
INDEX 00 10:52:11
INDEX 01 10:55:50
TRACK 04 AUDIO
TITLE “I Can’t Dance”
PERFORMER “Genesis”
INDEX 00 21:00:64
INDEX 01 21:04:25
TRACK 05 AUDIO
TITLE “Never a Time”
PERFORMER “Genesis”
INDEX 00 25:02:06
INDEX 01 25:05:30
TRACK 06 AUDIO
TITLE “Dreaming While You Sleep”
PERFORMER “Genesis”
INDEX 00 28:52:29
INDEX 01 28:55:62
TRACK 07 AUDIO
TITLE “Tell Me Why”
PERFORMER “Genesis”
INDEX 00 36:07:74
INDEX 01 36:12:47
TRACK 08 AUDIO
TITLE “Living Forever”
PERFORMER “Genesis”
INDEX 00 41:07:66
INDEX 01 41:11:45
TRACK 09 AUDIO
TITLE “Hold on My Heart”
PERFORMER “Genesis”
INDEX 00 46:49:26
INDEX 01 46:52:47
TRACK 10 AUDIO
TITLE “Way of the World”
PERFORMER “Genesis”
INDEX 00 51:27:29
INDEX 01 51:30:50
TRACK 11 AUDIO
TITLE “Since I Lost You”
PERFORMER “Genesis”
INDEX 00 57:05:36
INDEX 01 57:09:47
TRACK 12 AUDIO
TITLE “Fading Lights”
PERFORMER “Genesis”
INDEX 00 61:16:09
INDEX 01 61:19:30


Leave a Reply

Your email address will not be published. Required fields are marked *

This site uses Akismet to reduce spam. Learn how your comment data is processed.