Genesis – Trespass (Reissue)




No Cover available

Artist: Genesis
Year: 1970/1985
Genre: Rock
Notes: Discogs
Add. Notes: Reissue
Watch Songs on: YouTube
Cover incl.: Yes
Encoder: FLAC
Bitrate: ~700 kBit/s (44.1 kHz/16 Bit/s)
Log & Cue incl.: Yes/Yes
Size: 243,5 MB
Password: “slam” (without ” “)


All Downloads/Hosters are compatible

Download 1
KatFile.com
Turbobit.net
FileFactory.com
Rapidgator.net
Download 2
KatFile.com
Turbobit.net
FileFactory.com
Rapidgator.net

Tracklist:

1 - Looking For Someone - 7:05
2 - White Mountain - 6:43
3 - Visions Of Angels - 6:51
4 - Stagnation - 8:50
5 - Dusk - 4:12
6 - The Knife - 8:55

EAC-Log, CUE-Sheed & NFO:

Click to open spoiler
Exact Audio Copy V1.0 beta 2 from 29. April 2011

EAC extraction logfile from 5. October 2011, 14:04

Genesis / Trespass (CASCD 1020)

Used drive : TEAC DV-W516GDM Adapter: 0 ID: 1

Read mode : Secure
Utilize accurate stream : Yes
Defeat audio cache : Yes
Make use of C2 pointers : No

Read offset correction : 6
Overread into Lead-In and Lead-Out : No
Fill up missing offset samples with silence : Yes
Delete leading and trailing silent blocks : No
Null samples used in CRC calculations : Yes
Used interface : Native Win32 interface for Win NT & 2000

Used output format : User Defined Encoder
Selected bitrate : 896 kBit/s
Quality : High
Add ID3 tag : No
Command line compressor : C:\Program Files\Exact Audio Copy 1.2\Flac\flac.exe
Additional command line options : -V -8 %source%

TOC of the extracted CD

Track | Start | Length | Start sector | End sector
———————————————————
1 | 0:00.05 | 7:05.70 | 5 | 31949
2 | 7:06.00 | 6:43.52 | 31950 | 62226
3 | 13:49.52 | 6:51.60 | 62227 | 93111
4 | 20:41.37 | 8:50.28 | 93112 | 132889
5 | 29:31.65 | 4:12.35 | 132890 | 151824
6 | 33:44.25 | 8:55.62 | 151825 | 192011

Range status and errors

Selected range

Filename C:\Olaf der Weisse\Genesis . 1970 . Trespass (CASCD 1020)\Genesis – Trespass (CASCD 1020).wav

Peak level 100.0 %
Extraction speed 2.4 X
Range quality 100.0 %
Test CRC DF59C3CA
Copy CRC DF59C3CA
Copy OK

No errors occurred

AccurateRip summary

Track 1 accurately ripped (confidence 5) [C0EAF3B0] (AR v2)
Track 2 accurately ripped (confidence 5) [22F68FCA] (AR v2)
Track 3 accurately ripped (confidence 5) [29B1BCBA] (AR v2)
Track 4 accurately ripped (confidence 5) [188F2329] (AR v2)
Track 5 accurately ripped (confidence 5) [962C10A1] (AR v2)
Track 6 accurately ripped (confidence 5) [80797239] (AR v2)

All tracks accurately ripped

End of status report

==== Log checksum 4BC84D9123D2491135E918E51BB6CF719F20B0683B5B1125A0F12D38DD304159 ====

REM GENRE “Progressive Rock”
REM DATE 1970
REM DISCID 420A0006
REM COMMENT “ExactAudioCopy v1.0b2”
PERFORMER “Genesis”
TITLE “Trespass (CASCD 1020)”
FILE “Genesis – Trespass (CASCD 1020).flac” WAVE
TRACK 01 AUDIO
TITLE “Looking for someone”
PERFORMER “Genesis”
INDEX 00 00:00:00
INDEX 01 00:00:05
TRACK 02 AUDIO
TITLE “White mountain”
PERFORMER “Genesis”
INDEX 00 07:05:05
INDEX 01 07:06:00
TRACK 03 AUDIO
TITLE “Visions of angels”
PERFORMER “Genesis”
INDEX 00 13:47:35
INDEX 01 13:49:52
TRACK 04 AUDIO
TITLE “Stagnation”
PERFORMER “Genesis”
INDEX 00 20:40:02
INDEX 01 20:41:37
TRACK 05 AUDIO
TITLE “Dusk”
PERFORMER “Genesis”
INDEX 00 29:30:40
INDEX 01 29:31:65
TRACK 06 AUDIO
TITLE “The knife”
PERFORMER “Genesis”
INDEX 01 33:44:25


Leave a Reply

Your email address will not be published. Required fields are marked *

This site uses Akismet to reduce spam. Learn how your comment data is processed.