Genesis – Trespass (Japanese Edition)




Artist: Genesis
Year: 1970/1988
Genre: Rock
Notes: Discogs
Add. Notes: Japanese Edition
Cover incl.: Yes
Encoder: FLAC
Bitrate: ~800 kBit/s (44.1 kHz/16 Bit/s)
Log & Cue incl.: Yes
Size: 286,14 MB
Password: “slam” (without ” “)


All Downloads/Hosters are compatible

Download 1
Turbobit.net
Rapidgator.net
KatFile.com
UploadRar.com
Download 2
Turbobit.net
Rapidgator.net
KatFile.com
UploadRar.com
Download 3
Turbobit.net
Rapidgator.net
KatFile.com
UploadRar.com

Tracklist:

1 - Looking For Someone - 7:05
2 - White Mountain - 6:43
3 - Visions Of Angels - 6:51
4 - Stagnation - 8:50
5 - Dusk - 4:12
6 - The Knife - 8:55

EAC-Log, CUE-Sheed & NFO:

Click to open spoiler
Exact Audio Copy V0.99 prebeta 5 from 4. May 2009

EAC extraction logfile from 29. November 2011, 23:01

Genesis / Trespass.VJD28-006.Japan

Used drive : PLEXTOR CD-R PREMIUM2 Adapter: 0 ID: 1

Read mode : Secure
Utilize accurate stream : Yes
Defeat audio cache : Yes
Make use of C2 pointers : No

Read offset correction : 30
Overread into Lead-In and Lead-Out : No
Fill up missing offset samples with silence : Yes
Delete leading and trailing silent blocks : No
Null samples used in CRC calculations : Yes
Used interface : Installed external ASPI interface

Used output format : User Defined Encoder
Selected bitrate : 768 kBit/s
Quality : High
Add ID3 tag : No
Command line compressor : C:\Program Files\Exact Audio Copy\FLAC\FLAC.EXE
Additional command line options : -6 -V -T “ARTIST=%a” -T “TITLE=%t” -T “ALBUM=%g” -T “DATE=%y” -T “TRACKNUMBER=%n” -T “GENRE=%m” -T “COMMENT=%e” %s -o %d

TOC of the extracted CD

Track | Start | Length | Start sector | End sector
———————————————————
1 | 0:00.37 | 7:08.00 | 37 | 32136
2 | 7:08.37 | 6:45.03 | 32137 | 62514
3 | 13:53.40 | 6:52.62 | 62515 | 93476
4 | 20:46.27 | 8:51.18 | 93477 | 133319
5 | 29:37.45 | 4:14.50 | 133320 | 152419
6 | 33:52.20 | 8:59.02 | 152420 | 192846

Range status and errors

Selected range

Filename H:\Temp\Genesis\Trespass.1970.VJD-28006.Virgin.Japan\Genesis – Trespass.VJD28-006.Japan.wav

Peak level 100.0 %
Range quality 100.0 %
Test CRC 011AD380
Copy CRC 011AD380
Copy OK

No errors occurred

AccurateRip summary

Track 1 not present in database
Track 2 not present in database
Track 3 not present in database
Track 4 not present in database
Track 5 not present in database
Track 6 not present in database

None of the tracks are present in the AccurateRip database

End of status report

REM GENRE “Progressive Rock”
REM DATE 1970
REM DISCID 490A0B06
REM COMMENT “ExactAudioCopy v0.99pb5”
PERFORMER “Genesis”
TITLE “Trespass.VJD28-006.Japan”
FILE “Genesis – Trespass.VJD28-006.Japan.flac” WAVE
TRACK 01 AUDIO
TITLE “Looking For Someone”
PERFORMER “Genesis”
INDEX 00 00:00:00
INDEX 01 00:00:37
TRACK 02 AUDIO
TITLE “White Mountain”
PERFORMER “Genesis”
INDEX 00 07:06:70
INDEX 01 07:08:37
TRACK 03 AUDIO
TITLE “Visions Of Angels”
PERFORMER “Genesis”
INDEX 00 13:51:57
INDEX 01 13:53:40
TRACK 04 AUDIO
TITLE “Stagnation”
PERFORMER “Genesis”
INDEX 00 20:45:24
INDEX 01 20:46:27
TRACK 05 AUDIO
TITLE “Dusk”
PERFORMER “Genesis”
INDEX 00 29:36:12
INDEX 01 29:37:45
TRACK 06 AUDIO
TITLE “The Knife”
PERFORMER “Genesis”
INDEX 00 33:51:05
INDEX 01 33:52:20


Leave a Reply

Your email address will not be published. Required fields are marked *

This site uses Akismet to reduce spam. Learn how your comment data is processed.