Genesis – The Way We Walk Volume One – The Shorts (Live)




Artist: Genesis
Year: 1992
Genre: Rock
Notes: Discogs
Add. Notes:
Cover incl.: No
Encoder: FLAC
Bitrate: ~900 kBit/s (44.1 kHz/16 Bit/s)
Log & Cue incl.: Yes
Size: 421,57 MB
Password: “slam” (without ” “)


All Downloads/Hosters are compatible

Download 1
Turbobit.net
Rapidgator.net
UploadEver.com
JustUpload.io
UsersDrive.com
Download 2
Turbobit.net
Rapidgator.net
UploadEver.com
JustUpload.io
UsersDrive.com
Download 3
Turbobit.net
Rapidgator.net
UploadEver.com
JustUpload.io
UsersDrive.com

Tracklist:

1 - Land Of Confusion - 5:16
2 - No Son Of Mine - 7:05
3 - Jesus He Knows Me - 5:23
4 - Throwing It All Away - 6:01
5 - I Can't Dance - 6:55
6 - Mama - 6:50
7 - Hold On My Heart - 5:40
8 - That's All - 4:58
9 - In Too Deep - 5:36
10 - Tonight, Tonight, Tonight - 3:35
11 - Invisible Touch - 5:41

EAC-Log, CUE-Sheed & NFO:

Click to open spoiler
Exact Audio Copy V1.0 beta 1 from 15. November 2010

EAC extraction logfile from 18. January 2011, 15:35

Genesis / The Way We Walk Volume One – The Shorts (Live)

Used drive : Optiarc BD ROM BC-5530H Adapter: 0 ID: 1

Read mode : Secure
Utilize accurate stream : Yes
Defeat audio cache : Yes
Make use of C2 pointers : No

Read offset correction : 48
Overread into Lead-In and Lead-Out : No
Fill up missing offset samples with silence : Yes
Delete leading and trailing silent blocks : No
Null samples used in CRC calculations : Yes
Used interface : Native Win32 interface for Win NT & 2000
Gap handling : Appended to previous track

Used output format : User Defined Encoder
Selected bitrate : 320 kBit/s
Quality : High
Add ID3 tag : No
Command line compressor : C:\Program Files (x86)\Exact Audio Copy\Flac\flac.exe
Additional command line options : -V -8 -T “artist=%a” -T “title=%t” -T “album=%g” -T “date=%y” -T “tracknumber=%n” -T “genre=%m” %s

TOC of the extracted CD

Track | Start | Length | Start sector | End sector
———————————————————
1 | 0:00.32 | 5:16.68 | 32 | 23799
2 | 5:17.25 | 7:05.35 | 23800 | 55709
3 | 12:22.60 | 5:23.37 | 55710 | 79971
4 | 17:46.22 | 6:01.53 | 79972 | 107099
5 | 23:48.00 | 6:55.07 | 107100 | 138231
6 | 30:43.07 | 6:50.48 | 138232 | 169029
7 | 37:33.55 | 5:40.52 | 169030 | 194581
8 | 43:14.32 | 4:58.65 | 194582 | 216996
9 | 48:13.22 | 5:36.28 | 216997 | 242224
10 | 53:49.50 | 3:35.45 | 242225 | 258394
11 | 57:25.20 | 5:41.60 | 258395 | 284029

Track 1

Filename C:\EAC Rips\Genesis – 1992 – The Way We Walk Volume One – The Shorts (Live) [FLAC]\01 – Land Of Confusion.wav

Pre-gap length 0:00:02.42

Peak level 97.3 %
Extraction speed 10.5 X
Track quality 100.0 %
Test CRC 1B2F4F32
Copy CRC 1B2F4F32
Accurately ripped (confidence 2) [96FF9792]
Copy OK

Track 2

Filename C:\EAC Rips\Genesis – 1992 – The Way We Walk Volume One – The Shorts (Live) [FLAC]\02 – No Son Of Mine.wav

Pre-gap length 0:00:00.04

Peak level 97.3 %
Extraction speed 12.1 X
Track quality 100.0 %
Test CRC 3FEAAABF
Copy CRC 3FEAAABF
Accurately ripped (confidence 2) [AC1D44D4]
Copy OK

Track 3

Filename C:\EAC Rips\Genesis – 1992 – The Way We Walk Volume One – The Shorts (Live) [FLAC]\03 – Jesus He Knows Me.wav

Pre-gap length 0:00:00.04

Peak level 99.7 %
Extraction speed 13.2 X
Track quality 100.0 %
Test CRC FE286538
Copy CRC FE286538
Accurately ripped (confidence 2) [AF1B27CE]
Copy OK

Track 4

Filename C:\EAC Rips\Genesis – 1992 – The Way We Walk Volume One – The Shorts (Live) [FLAC]\04 – Throwing It All Away.wav

Pre-gap length 0:00:00.02

Peak level 97.3 %
Extraction speed 14.2 X
Track quality 100.0 %
Test CRC 9E167B6C
Copy CRC 9E167B6C
Accurately ripped (confidence 2) [5B7C9EDE]
Copy OK

Track 5

Filename C:\EAC Rips\Genesis – 1992 – The Way We Walk Volume One – The Shorts (Live) [FLAC]\05 – I Can’t Dance.wav

Pre-gap length 0:00:00.04

Peak level 97.3 %
Extraction speed 14.7 X
Track quality 99.9 %
Test CRC 93BF2D06
Copy CRC 93BF2D06
Accurately ripped (confidence 2) [3BFC2E0F]
Copy OK

Track 6

Filename C:\EAC Rips\Genesis – 1992 – The Way We Walk Volume One – The Shorts (Live) [FLAC]\06 – Mama.wav

Pre-gap length 0:00:00.69

Peak level 97.3 %
Extraction speed 16.4 X
Track quality 100.0 %
Test CRC 6BFE47A7
Copy CRC 6BFE47A7
Accurately ripped (confidence 2) [08F0DABC]
Copy OK

Track 7

Filename C:\EAC Rips\Genesis – 1992 – The Way We Walk Volume One – The Shorts (Live) [FLAC]\07 – Hold On My Heart.wav

Pre-gap length 0:00:00.04

Peak level 89.9 %
Extraction speed 15.7 X
Track quality 99.9 %
Test CRC E6283BFC
Copy CRC E6283BFC
Accurately ripped (confidence 2) [3E1A434A]
Copy OK

Track 8

Filename C:\EAC Rips\Genesis – 1992 – The Way We Walk Volume One – The Shorts (Live) [FLAC]\08 – That’s All.wav

Pre-gap length 0:00:00.02

Peak level 97.3 %
Extraction speed 16.3 X
Track quality 99.9 %
Test CRC 0DF534D0
Copy CRC 0DF534D0
Accurately ripped (confidence 2) [D732F86F]
Copy OK

Track 9

Filename C:\EAC Rips\Genesis – 1992 – The Way We Walk Volume One – The Shorts (Live) [FLAC]\09 – In Too Deep.wav

Pre-gap length 0:00:00.02

Peak level 97.3 %
Extraction speed 17.0 X
Track quality 99.9 %
Test CRC 682B0493
Copy CRC 682B0493
Accurately ripped (confidence 2) [6A207B13]
Copy OK

Track 10

Filename C:\EAC Rips\Genesis – 1992 – The Way We Walk Volume One – The Shorts (Live) [FLAC]\10 – Tonight, Tonight, Tonight.wav

Pre-gap length 0:00:00.04

Peak level 97.3 %
Extraction speed 18.0 X
Track quality 100.0 %
Test CRC DB42F541
Copy CRC DB42F541
Accurately ripped (confidence 2) [E9765375]
Copy OK

Track 11

Filename C:\EAC Rips\Genesis – 1992 – The Way We Walk Volume One – The Shorts (Live) [FLAC]\11 – Invisible Touch.wav

Pre-gap length 0:00:00.04

Peak level 97.3 %
Extraction speed 19.5 X
Track quality 100.0 %
Test CRC A826FF2C
Copy CRC A826FF2C
Accurately ripped (confidence 2) [0CA1F558]
Copy OK

All tracks accurately ripped

No errors occurred

End of status report

==== Log checksum 04E61A5905CBFABD8E5D8852869274C259D6E03477C0CAD9226CE86A962EA582 ====

REM GENRE Rock
REM DATE 1992
REM DISCID 9E0ECB0B
REM COMMENT “ExactAudioCopy v1.0b1”
FILE “01 – Land Of Confusion.wav” WAVE
TRACK 01 AUDIO
PREGAP 00:00:32
INDEX 01 00:00:00
TRACK 02 AUDIO
INDEX 00 05:16:65
FILE “02 – No Son Of Mine.wav” WAVE
INDEX 01 00:00:00
TRACK 03 AUDIO
INDEX 00 07:05:32
FILE “03 – Jesus He Knows Me.wav” WAVE
INDEX 01 00:00:00
TRACK 04 AUDIO
INDEX 00 05:23:35
FILE “04 – Throwing It All Away.wav” WAVE
INDEX 01 00:00:00
TRACK 05 AUDIO
INDEX 00 06:01:50
FILE “05 – I Can’t Dance.wav” WAVE
INDEX 01 00:00:00
TRACK 06 AUDIO
INDEX 00 06:54:30
FILE “06 – Mama.wav” WAVE
INDEX 01 00:00:00
TRACK 07 AUDIO
INDEX 00 06:50:45
FILE “07 – Hold On My Heart.wav” WAVE
INDEX 01 00:00:00
TRACK 08 AUDIO
INDEX 00 05:40:50
FILE “08 – That’s All.wav” WAVE
INDEX 01 00:00:00
TRACK 09 AUDIO
INDEX 00 04:58:63
FILE “09 – In Too Deep.wav” WAVE
INDEX 01 00:00:00
TRACK 10 AUDIO
INDEX 00 05:36:25
FILE “10 – Tonight, Tonight, Tonight.wav” WAVE
INDEX 01 00:00:00
TRACK 11 AUDIO
INDEX 00 03:35:42
FILE “11 – Invisible Touch.wav” WAVE
INDEX 01 00:00:00

Leave a Reply

Your email address will not be published. Required fields are marked *

This site uses Akismet to reduce spam. Learn how your comment data is processed.