Genesis – The Lamb Lies Down On Broadway (Japanese Edition)




No Cover available

Artist: Genesis
Year: 1974/1988
Genre: Rock
Notes: Discogs
Add. Notes: Japanese Edition
Watch Songs on: YouTube
Cover incl.: Yes
Encoder: FLAC
Bitrate: ~900 kBit/s (44.1 kHz/16 Bit/s)
Log & Cue incl.: Yes/Yes
Size: 531,1 MB
Password: “slam” (without ” “)


All Downloads/Hosters are compatible

Download 1
KatFile.com
Turbobit.net
FileFactory.com
Rapidgator.net
Download 2
KatFile.com
Turbobit.net
FileFactory.com
Rapidgator.net

Tracklist:

1-1 - The Lamb Lies Down On Broadway - 4:50
1-2 - Fly On A Windshield - 4:22
1-3 - Broadway Melody Of 1974 - 0:33
1-4 - Cuckoo Cocoon - 2:11
1-5 - In The Cage - 8:13
1-6 - The Grand Parade Of Lifeless Packaging - 2:45
1-7 - Back In N.Y.C. - 5:24
1-8 - Hairless Heart - 2:31
1-9 - Counting Out Time - 3:40
1-10 - Carpet Crawl - 5:15
1-11 - The Chamber Of 32 Doors - 5:41
2-1 - Lilywhite Lilith - 2:42
2-2 - The Waiting Room - 5:24
2-3 - Anyway - 3:07
2-4 - Here Comes The Supernatural Anaesthetist - 2:59
2-5 - The Lamia - 6:56
2-6 - Silent Sorrow In Empty Boats - 3:06
2-7 - The Colony Of Slippermen - 8:13
2-7a - Arrival - 
2-7b - A Visit To The Doktor - 
2-7c - Raven - 
2-8 - Ravine - 2:04
2-9 - The Light Dies Down On Broadway - 3:37
2-10 - Riding The Scree - 3:56
2-11 - In The Rapids - 2:26
2-12 - It - 4:15

EAC-Log, CUE-Sheed & NFO:

Click to open spoiler
REM GENRE “Progressive Rock”
REM DATE 1974
REM DISCID AB0B6C0C
REM COMMENT “ExactAudioCopy v0.99pb5”
PERFORMER “Genesis”
TITLE “The Lamb Lies Down On Broadway.VJD-25012.Japan”
FILE “Genesis – The Lamb Lies Down On Broadway.VJD-25012.Japan.flac” WAVE
TRACK 01 AUDIO
TITLE “Lilywhite Lilith”
PERFORMER “Genesis”
INDEX 00 00:00:00
INDEX 01 00:00:37
TRACK 02 AUDIO
TITLE “The Waiting Room”
PERFORMER “Genesis”
INDEX 01 02:39:62
TRACK 03 AUDIO
TITLE “Anyway”
PERFORMER “Genesis”
INDEX 00 08:06:24
INDEX 01 08:06:25
TRACK 04 AUDIO
TITLE “The Supernatural Anaesthetist”
PERFORMER “Genesis”
INDEX 01 11:13:17
TRACK 05 AUDIO
TITLE “The Lamia”
PERFORMER “Genesis”
INDEX 01 14:12:72
TRACK 06 AUDIO
TITLE “Silent Sorrow in Empty Boats”
PERFORMER “Genesis”
INDEX 00 21:08:54
INDEX 01 21:09:05
TRACK 07 AUDIO
TITLE “The Colony of Slippermen (a. The Arrival; b. A Visit to the Doktor; c. The Ra…”
PERFORMER “Genesis”
INDEX 01 24:15:32
TRACK 08 AUDIO
TITLE “Ravine”
PERFORMER “Genesis”
INDEX 00 32:23:34
INDEX 01 32:23:35
TRACK 09 AUDIO
TITLE “The Light Dies Down on Broadway”
PERFORMER “Genesis”
INDEX 01 34:31:37
TRACK 10 AUDIO
TITLE “Riding the Scree”
PERFORMER “Genesis”
INDEX 01 38:03:52
TRACK 11 AUDIO
TITLE “In the Rapids”
PERFORMER “Genesis”
INDEX 00 41:59:72
INDEX 01 42:00:22
TRACK 12 AUDIO
TITLE “It”
PERFORMER “Genesis”
INDEX 01 44:23:17

REM GENRE “Progressive Rock”
REM DATE 1974
REM DISCID 9D0AA40B
REM COMMENT “ExactAudioCopy v0.99pb5”
PERFORMER “Genesis”
TITLE “The Lamb Lies Down On Broadway.VJD-25011.Japan”
FILE “Genesis – The Lamb Lies Down On Broadway.VJD-25011.Japan.flac” WAVE
TRACK 01 AUDIO
TITLE “The Lamb Lies Doen On Broadway”
PERFORMER “Genesis”
INDEX 00 00:00:00
INDEX 01 00:00:37
TRACK 02 AUDIO
TITLE “Fly On A Windshield”
PERFORMER “Genesis”
INDEX 01 04:46:42
TRACK 03 AUDIO
TITLE “Broadway Melody Of 1974”
PERFORMER “Genesis”
INDEX 01 06:07:02
TRACK 04 AUDIO
TITLE “Cuckoo Cocoon”
PERFORMER “Genesis”
INDEX 01 09:43:62
TRACK 05 AUDIO
TITLE “In The Cage”
PERFORMER “Genesis”
INDEX 01 11:54:50
TRACK 06 AUDIO
TITLE “The Grand Parade Of Lifeless Packaging”
PERFORMER “Genesis”
INDEX 00 20:06:42
INDEX 01 20:08:10
TRACK 07 AUDIO
TITLE “Back In N.Y.C.”
PERFORMER “Genesis”
INDEX 00 22:52:47
INDEX 01 22:53:22
TRACK 08 AUDIO
TITLE “Hairless Heart”
PERFORMER “Genesis”
INDEX 01 28:37:72
TRACK 09 AUDIO
TITLE “Counting Out Time”
PERFORMER “Genesis”
INDEX 01 30:47:42
TRACK 10 AUDIO
TITLE “Carpet Crawl”
PERFORMER “Genesis”
INDEX 00 34:28:17
INDEX 01 34:28:60
TRACK 11 AUDIO
TITLE “The Chamber Of 32 Doors”
PERFORMER “Genesis”
INDEX 01 39:43:22

Exact Audio Copy V0.99 prebeta 5 from 4. May 2009

EAC extraction logfile from 22. November 2011, 22:33

Genesis / The Lamb Lies Down On Broadway.VJD-25011.Japan

Used drive : PLEXTOR CD-R PREMIUM2 Adapter: 0 ID: 1

Read mode : Secure
Utilize accurate stream : Yes
Defeat audio cache : Yes
Make use of C2 pointers : No

Read offset correction : 30
Overread into Lead-In and Lead-Out : No
Fill up missing offset samples with silence : Yes
Delete leading and trailing silent blocks : No
Null samples used in CRC calculations : Yes
Used interface : Installed external ASPI interface

Used output format : User Defined Encoder
Selected bitrate : 768 kBit/s
Quality : High
Add ID3 tag : No
Command line compressor : C:\Program Files\Exact Audio Copy\FLAC\FLAC.EXE
Additional command line options : -6 -V -T “ARTIST=%a” -T “TITLE=%t” -T “ALBUM=%g” -T “DATE=%y” -T “TRACKNUMBER=%n” -T “GENRE=%m” -T “COMMENT=%e” %s -o %d

TOC of the extracted CD

Track | Start | Length | Start sector | End sector
———————————————————
1 | 0:00.37 | 4:46.05 | 37 | 21491
2 | 4:46.42 | 1:20.35 | 21492 | 27526
3 | 6:07.02 | 3:36.60 | 27527 | 43786
4 | 9:43.62 | 2:10.63 | 43787 | 53599
5 | 11:54.50 | 8:13.35 | 53600 | 90609
6 | 20:08.10 | 2:45.12 | 90610 | 102996
7 | 22:53.22 | 5:44.50 | 102997 | 128846
8 | 28:37.72 | 2:09.45 | 128847 | 138566
9 | 30:47.42 | 3:41.18 | 138567 | 155159
10 | 34:28.60 | 5:14.37 | 155160 | 178746
11 | 39:43.22 | 5:40.68 | 178747 | 204314

Range status and errors

Selected range

Filename H:\Temp\Genesis\The Lamb Lies Down On Broadway.1974.VJD-25011.12.Virgin.Japan\The Lamb Lies Down On Broadway.1974.VJD-25011.Japan\Genesis – The Lamb Lies Down On Broadway.VJD-25011.Japan.wav

Peak level 89.7 %
Range quality 100.0 %
Test CRC E5F6FE62
Copy CRC E5F6FE62
Copy OK

No errors occurred

AccurateRip summary

Track 1 not present in database
Track 2 not present in database
Track 3 not present in database
Track 4 not present in database
Track 5 not present in database
Track 6 not present in database
Track 7 not present in database
Track 8 not present in database
Track 9 not present in database
Track 10 not present in database
Track 11 not present in database

None of the tracks are present in the AccurateRip database

End of status report

Exact Audio Copy V0.99 prebeta 5 from 4. May 2009

EAC extraction logfile from 22. November 2011, 23:19

Genesis / The Lamb Lies Down On Broadway.VJD-25012.Japan

Used drive : PLEXTOR CD-R PREMIUM2 Adapter: 0 ID: 1

Read mode : Secure
Utilize accurate stream : Yes
Defeat audio cache : Yes
Make use of C2 pointers : No

Read offset correction : 30
Overread into Lead-In and Lead-Out : No
Fill up missing offset samples with silence : Yes
Delete leading and trailing silent blocks : No
Null samples used in CRC calculations : Yes
Used interface : Installed external ASPI interface

Used output format : User Defined Encoder
Selected bitrate : 768 kBit/s
Quality : High
Add ID3 tag : No
Command line compressor : C:\Program Files\Exact Audio Copy\FLAC\FLAC.EXE
Additional command line options : -6 -V -T “ARTIST=%a” -T “TITLE=%t” -T “ALBUM=%g” -T “DATE=%y” -T “TRACKNUMBER=%n” -T “GENRE=%m” -T “COMMENT=%e” %s -o %d

TOC of the extracted CD

Track | Start | Length | Start sector | End sector
———————————————————
1 | 0:00.37 | 2:39.25 | 37 | 11986
2 | 2:39.62 | 5:26.38 | 11987 | 36474
3 | 8:06.25 | 3:06.67 | 36475 | 50491
4 | 11:13.17 | 2:59.55 | 50492 | 63971
5 | 14:12.72 | 6:56.08 | 63972 | 95179
6 | 21:09.05 | 3:06.27 | 95180 | 109156
7 | 24:15.32 | 8:08.03 | 109157 | 145759
8 | 32:23.35 | 2:08.02 | 145760 | 155361
9 | 34:31.37 | 3:32.15 | 155362 | 171276
10 | 38:03.52 | 3:56.45 | 171277 | 189021
11 | 42:00.22 | 2:22.70 | 189022 | 199741
12 | 44:23.17 | 4:20.73 | 199742 | 219314

Range status and errors

Selected range

Filename H:\Temp\Genesis\The Lamb Lies Down On Broadway.1974.VJD-25011.12.Virgin.Japan\The Lamb Lies Down On Broadway.1974.VJD-25012.Japan\Genesis – The Lamb Lies Down On Broadway.VJD-25012.Japan.wav

Peak level 87.6 %
Range quality 100.0 %
Test CRC 793F1B43
Copy CRC 793F1B43
Copy OK

No errors occurred

AccurateRip summary

Track 1 not present in database
Track 2 not present in database
Track 3 not present in database
Track 4 not present in database
Track 5 not present in database
Track 6 not present in database
Track 7 not present in database
Track 8 not present in database
Track 9 not present in database
Track 10 not present in database
Track 11 not present in database
Track 12 not present in database

None of the tracks are present in the AccurateRip database

End of status report


Leave a Reply

Your email address will not be published. Required fields are marked *

This site uses Akismet to reduce spam. Learn how your comment data is processed.