Genesis – Tell Me Why




Artist: Genesis
Year: 1992
Genre: Rock
Notes: Discogs
Add. Notes:
Encoder: FLAC
Bitrate: ~800 kBit/s (44.1 kHz/16 Bit/s)
Size: 166 MB
Password: “slam” (without ” “)


http://www.share-online.biz/dl/GVVHJMQP7OB
https://rapidgator.net/file/e9cd2c5e3ca46eb403775a726bdaba83
https://ayefiles.com/qbk3fkomv0gc/G1992-TelMeWhy665573.rar.html


Onlinestatus: Turbobit.net Rapidgator.net AyeFiles.com

Tracklist:

1 - Tell Me Why - 4:57
2 - Invisible Touch (Live) - 5:16
3 - Mama (Live) - 6:57
4 - The Brazilian (Live) - 5:26

EAC-Log, CUE-Sheed & NFO:

Click to open spoiler
Exact Audio Copy V1.0 beta 3 from 29. August 2011

EAC extraction logfile from 3. July 2013, 0:06

Genesis / Tell Me Why (665 573)

Used drive : HL-DT-STDVDRAM GE20NU11 Adapter: 0 ID: 1

Read mode : Secure
Utilize accurate stream : Yes
Defeat audio cache : Yes
Make use of C2 pointers : No

Read offset correction : 667
Overread into Lead-In and Lead-Out : No
Fill up missing offset samples with silence : Yes
Delete leading and trailing silent blocks : No
Null samples used in CRC calculations : Yes
Used interface : Native Win32 interface for Win NT & 2000

Used output format : User Defined Encoder
Selected bitrate : 896 kBit/s
Quality : High
Add ID3 tag : No
Command line compressor : C:\Program Files\EAC 3\Exact Audio Copy\Flac\flac.exe
Additional command line options : -V -8 %source%

TOC of the extracted CD

Track | Start | Length | Start sector | End sector
———————————————————
1 | 0:00.32 | 4:58.63 | 32 | 22444
2 | 4:59.20 | 5:18.12 | 22445 | 46306
3 | 10:17.32 | 6:57.73 | 46307 | 77654
4 | 17:15.30 | 5:27.25 | 77655 | 102204

Range status and errors

Selected range

Filename C:\OdW\1992 – Tell Me Why (665 573)\Genesis – Tell Me Why (665 573).wav

Peak level 97.3 %
Extraction speed 1.5 X
Range quality 100.0 %
Test CRC E7CAD26F
Copy CRC E7CAD26F
Copy OK

No errors occurred

AccurateRip summary

Track 1 cannot be verified as accurate (confidence 6) [D8367416], AccurateRip returned [1EBD2E29] (AR v2)
Track 2 accurately ripped (confidence 6) [92E90003] (AR v1)
Track 3 accurately ripped (confidence 6) [A346239C] (AR v1)
Track 4 accurately ripped (confidence 6) [BBE61349] (AR v1)

3 track(s) accurately ripped
1 track(s) could not be verified as accurate

Some tracks could not be verified as accurate

End of status report

==== Log checksum 29D8B651CFF4410A8CEF5396B530F16A9DDDA14BED935B220166EBC519AF1BCB ====

REM GENRE “Progressive Rock”
REM DATE 1992
REM DISCID 21055204
REM COMMENT “ExactAudioCopy v1.0b3”
PERFORMER “Genesis”
TITLE “Tell Me Why (665 573)”
FILE “Genesis – Tell Me Why (665 573).flac” WAVE
TRACK 01 AUDIO
TITLE “Tell Me Why”
PERFORMER “Genesis”
INDEX 00 00:00:00
INDEX 01 00:00:32
TRACK 02 AUDIO
TITLE “Invisible Touch (Live)”
PERFORMER “Genesis”
INDEX 00 04:59:15
INDEX 01 04:59:20
TRACK 03 AUDIO
TITLE “Mama (Live)”
PERFORMER “Genesis”
INDEX 00 10:17:30
INDEX 01 10:17:32
TRACK 04 AUDIO
TITLE “The Brazilian (Live)”
PERFORMER “Genesis”
INDEX 00 17:15:27
INDEX 01 17:15:30

Leave a Reply

Your email address will not be published. Required fields are marked *

This site uses Akismet to reduce spam. Learn how your comment data is processed.