Genesis – Spot The Pigeon




Artist: Genesis
Year: 1977/1993
Genre: Rock
Notes: Discogs
Add. Notes:
Cover incl.: Yes
Encoder: FLAC
Bitrate: ~800 kBit/s (44.1 kHz/16 Bit/s)
Log & Cue incl.: Yes
Size: 91,6 MB
Password: “slam” (without ” “)


All Downloads/Hosters are compatible

Download 1
KatFile.com
Turbobit.net
FileFactory.com
Rapidgator.net
Download 2
KatFile.com
Turbobit.net
FileFactory.com
Rapidgator.net

Tracklist:

1 - Match Of The Day - 3:23
2 - Pigeons - 3:10
3 - Inside And Out - 6:42

EAC-Log, CUE-Sheed & NFO:

Click to open spoiler
Exact Audio Copy V1.0 beta 3 from 29. August 2011

EAC extraction logfile from 16. May 2012, 12:05

Genesis / Spot The Pigeon [EP] (CDF 40)

Used drive : HL-DT-STDVDRAM GE20NU11 Adapter: 0 ID: 1

Read mode : Secure
Utilize accurate stream : Yes
Defeat audio cache : Yes
Make use of C2 pointers : No

Read offset correction : 667
Overread into Lead-In and Lead-Out : No
Fill up missing offset samples with silence : Yes
Delete leading and trailing silent blocks : No
Null samples used in CRC calculations : Yes
Used interface : Native Win32 interface for Win NT & 2000

Used output format : User Defined Encoder
Selected bitrate : 896 kBit/s
Quality : High
Add ID3 tag : No
Command line compressor : C:\Program Files\EAC 3\Exact Audio Copy\Flac\flac.exe
Additional command line options : -V -8 %source%

TOC of the extracted CD

Track | Start | Length | Start sector | End sector
———————————————————
1 | 0:00.50 | 3:23.45 | 50 | 15319
2 | 3:24.20 | 3:13.60 | 15320 | 29854
3 | 6:38.05 | 6:44.52 | 29855 | 60206

Range status and errors

Selected range

Filename C:\Olaf der Weisse\1977 – Spot The Pigeon (CDF 40)\Genesis – Spot The Pigeon [EP] (CDF 40).wav

Peak level 93.6 %
Extraction speed 1.3 X
Range quality 100.0 %
Test CRC 9D484412
Copy CRC 9D484412
Copy OK

No errors occurred

AccurateRip summary

Track 1 accurately ripped (confidence 2) [F10BED8E] (AR v2)
Track 2 accurately ripped (confidence 2) [D06CE778] (AR v2)
Track 3 accurately ripped (confidence 2) [F923B96A] (AR v2)

All tracks accurately ripped

End of status report

==== Log checksum 528510759310A5537DB64FAD699A5A50333E5E5368E4A7AEF6D2E7BF1D1792B7 ====

REM GENRE “Progressive Rock”
REM DATE 1977
REM DISCID 0E032203
REM COMMENT “ExactAudioCopy v1.0b3”
PERFORMER “Genesis”
TITLE “Spot The Pigeon [EP] (CDF 40)”
FILE “Genesis – Spot The Pigeon [EP] (CDF 40).flac” WAVE
TRACK 01 AUDIO
TITLE “Match Of The Day”
PERFORMER “Genesis”
INDEX 00 00:00:00
INDEX 01 00:00:50
TRACK 02 AUDIO
TITLE “Pigeons”
PERFORMER “Genesis”
INDEX 01 03:24:20
TRACK 03 AUDIO
TITLE “Inside And Out”
PERFORMER “Genesis”
INDEX 01 06:38:05


Leave a Reply

Your email address will not be published. Required fields are marked *

This site uses Akismet to reduce spam. Learn how your comment data is processed.