Genesis – Shipwrecked (3-Track Version)




Artist: Genesis
Year: 1997
Genre: Rock
Notes: Discogs
Add. Notes:
Cover incl.: No
Encoder: FLAC
Bitrate: ~800 kBit/s (44.1 kHz/16 Bit/s)
Log & Cue incl.: Yes
Size: 94,48 MB
Password: “slam” (without ” “)


All Downloads/Hosters are compatible

Download 1
Turbobit.net
Rapidgator.net
KatFile.com
UploadRar.com
Download 2
Turbobit.net
Rapidgator.net
KatFile.com
UploadRar.com
Download 3
Turbobit.net
Rapidgator.net
KatFile.com
UploadRar.com

Tracklist:

1 - Shipwrecked - 4:27
2 - Phret (Instrumental) - 4:05
3 - 7/8 (Instrumental) - 5:09

EAC-Log, CUE-Sheed & NFO:

Click to open spoiler
Exact Audio Copy V1.0 beta 3 from 29. August 2011

EAC extraction logfile from 22. June 2014, 21:08

Genesis / Shipwrecked (GENSD 14)

Used drive : HL-DT-STDVDRAM GE20NU11 Adapter: 0 ID: 1

Read mode : Secure
Utilize accurate stream : Yes
Defeat audio cache : Yes
Make use of C2 pointers : No

Read offset correction : 667
Overread into Lead-In and Lead-Out : No
Fill up missing offset samples with silence : Yes
Delete leading and trailing silent blocks : No
Null samples used in CRC calculations : Yes
Used interface : Native Win32 interface for Win NT & 2000

Used output format : User Defined Encoder
Selected bitrate : 896 kBit/s
Quality : High
Add ID3 tag : No
Command line compressor : C:\Program Files\EAC 3\Exact Audio Copy\Flac\flac.exe
Additional command line options : -V -8 %source%

TOC of the extracted CD

Track | Start | Length | Start sector | End sector
———————————————————
1 | 0:00.00 | 4:26.65 | 0 | 20014
2 | 4:26.65 | 4:05.33 | 20015 | 38422
3 | 8:32.23 | 5:09.15 | 38423 | 61612

Range status and errors

Selected range

Filename C:\OdW\1997 – Shipwrecked (GENSD 14)\Genesis – Shipwrecked (GENSD 14).wav

Peak level 100.0 %
Extraction speed 1.3 X
Range quality 100.0 %
Test CRC E9FC7743
Copy CRC E9FC7743
Copy OK

No errors occurred

AccurateRip summary

Track 1 accurately ripped (confidence 2) [EB9AA93D] (AR v2)
Track 2 accurately ripped (confidence 4) [771D8219] (AR v2)
Track 3 accurately ripped (confidence 4) [3D388BD1] (AR v2)

All tracks accurately ripped

End of status report

==== Log checksum 21BA55C78A64224CD45033EF0315A81379392175B3C5208C2CAC065B6152362E ====

REM GENRE “Progressive Rock”
REM DATE 1997
REM DISCID 1C033503
REM COMMENT “ExactAudioCopy v1.0b3”
PERFORMER “Genesis”
TITLE “Shipwrecked (GENSD 14)”
FILE “Genesis – Shipwrecked (GENSD 14).flac” WAVE
TRACK 01 AUDIO
TITLE “Shipwrecked”
PERFORMER “Genesis”
INDEX 01 00:00:00
TRACK 02 AUDIO
TITLE “Phret (instrumental)”
PERFORMER “Genesis”
INDEX 00 04:24:03
INDEX 01 04:26:65
TRACK 03 AUDIO
TITLE “7/8 (instrumental)”
PERFORMER “Genesis”
INDEX 00 08:29:35
INDEX 01 08:32:23


Leave a Reply

Your email address will not be published. Required fields are marked *

Enter the text from the image below
 

This site uses Akismet to reduce spam. Learn how your comment data is processed.