Genesis – Selling England by the Pound (Japanese Edition)




Artist: Genesis
Year: 1973/1988
Genre: Rock
Notes: Discogs
Add. Notes: Japanese Edition
Encoder: FLAC
Bitrate: ~800 kBit/s (44.1 kHz/16 Bit/s)
Size: 335,41 MB
Password: “slam” (without ” “)


http://www.share-online.biz/dl/BW4OMMQP3G01
http://www.share-online.biz/dl/R98OMMQPYJ7G
http://www.share-online.biz/dl/1H7OMMQP85
http://www.share-online.biz/dl/4E7OMMQP5VK
https://rapidgator.net/file/095ac97f4d4157ab975fa75bac941f87
https://rapidgator.net/file/2c144b7bc480b21e14870ecaa50f0fd0
https://rapidgator.net/file/8830e64b061d980c9aac4424e5e2b40c
https://rapidgator.net/file/949d152414bc1441aaf87f3375f5608a
https://ayefiles.com/fki8cp4fmhib/Gen-SelEnglByThePouJapEdi.part1.rar.html
https://ayefiles.com/ia90ifdxzkzm/Gen-SelEnglByThePouJapEdi.part2.rar.html
https://ayefiles.com/c96exyuh9miy/Gen-SelEnglByThePouJapEdi.part3.rar.html
https://ayefiles.com/ge3xe3yihn0e/Gen-SelEnglByThePouJapEdi.part4.rar.html

Onlinestatus: Turbobit.net Rapidgator.net AyeFiles.com

Tracklist:

1 - Dancing With The Moonlight Knight - 8:04
2 - I Know What I Like (In Your Wardrobe) - 4:08
3 - Firth Of Fifth - 9:37
4 - More Fool Me - 3:10
5 - The Battle Of Epping Forest - 11:46
6 - After The Ordeal - 4:16
7 - The Cinema Show - 11:06
8 - Aisle Of Plenty - 1:32

EAC-Log, CUE-Sheed & NFO:

Click to open spoiler
Exact Audio Copy V0.99 prebeta 5 from 4. May 2009

EAC extraction logfile from 29. November 2011, 21:28

Genesis / Selling England By The Pound.VJD-28025.Japan

Used drive : PLEXTOR CD-R PREMIUM2 Adapter: 0 ID: 1

Read mode : Secure
Utilize accurate stream : Yes
Defeat audio cache : Yes
Make use of C2 pointers : No

Read offset correction : 30
Overread into Lead-In and Lead-Out : No
Fill up missing offset samples with silence : Yes
Delete leading and trailing silent blocks : No
Null samples used in CRC calculations : Yes
Used interface : Installed external ASPI interface

Used output format : User Defined Encoder
Selected bitrate : 768 kBit/s
Quality : High
Add ID3 tag : No
Command line compressor : C:\Program Files\Exact Audio Copy\FLAC\FLAC.EXE
Additional command line options : -6 -V -T “ARTIST=%a” -T “TITLE=%t” -T “ALBUM=%g” -T “DATE=%y” -T “TRACKNUMBER=%n” -T “GENRE=%m” -T “COMMENT=%e” %s -o %d

TOC of the extracted CD

Track | Start | Length | Start sector | End sector
———————————————————
1 | 0:00.37 | 8:05.15 | 37 | 36426
2 | 8:05.52 | 4:07.58 | 36427 | 55009
3 | 12:13.35 | 9:37.55 | 55010 | 98339
4 | 21:51.15 | 3:12.22 | 98340 | 112761
5 | 25:03.37 | 11:46.13 | 112762 | 165724
6 | 36:49.50 | 4:16.37 | 165725 | 184961
7 | 41:06.12 | 10:45.15 | 184962 | 233351
8 | 51:51.27 | 1:54.45 | 233352 | 241946

Range status and errors

Selected range

Filename H:\Temp\Genesis\Selling England By The Pound.1973.VJD-28025.Virgin.Japan\Genesis – Selling England By The Pound.VJD-28025.Japan.wav

Peak level 78.3 %
Range quality 100.0 %
Test CRC 4063BD8A
Copy CRC 4063BD8A
Copy OK

No errors occurred

AccurateRip summary

Track 1 not present in database
Track 2 not present in database
Track 3 not present in database
Track 4 not present in database
Track 5 not present in database
Track 6 not present in database
Track 7 not present in database
Track 8 not present in database

None of the tracks are present in the AccurateRip database

End of status report

REM GENRE “Progressive Rock”
REM DATE 1973
REM DISCID 590C9908
REM COMMENT “ExactAudioCopy v0.99pb5”
PERFORMER “Genesis”
TITLE “Selling England By The Pound.VJD-28025.Japan”
FILE “Genesis – Selling England By The Pound.VJD-28025.Japan.flac” WAVE
TRACK 01 AUDIO
TITLE “Dancing With The Moonlit Knight”
PERFORMER “Genesis”
INDEX 00 00:00:00
INDEX 01 00:00:37
TRACK 02 AUDIO
TITLE “I Know What I Like (In Your Wardrobe)”
PERFORMER “Genesis”
INDEX 00 08:02:52
INDEX 01 08:05:52
TRACK 03 AUDIO
TITLE “Firth of Fifth”
PERFORMER “Genesis”
INDEX 00 12:11:27
INDEX 01 12:13:35
TRACK 04 AUDIO
TITLE “More Fool Me (voc. Phils)”
PERFORMER “Genesis”
INDEX 00 21:48:50
INDEX 01 21:51:15
TRACK 05 AUDIO
TITLE “The Battle of Epping Forest”
PERFORMER “Genesis”
INDEX 00 25:00:67
INDEX 01 25:03:37
TRACK 06 AUDIO
TITLE “After The Ordeal”
PERFORMER “Genesis”
INDEX 00 36:48:10
INDEX 01 36:49:50
TRACK 07 AUDIO
TITLE “The Cinema Show”
PERFORMER “Genesis”
INDEX 00 41:00:47
INDEX 01 41:06:12
TRACK 08 AUDIO
TITLE “Aisle of Plenty”
PERFORMER “Genesis”
INDEX 01 51:51:27

Leave a Reply

Your email address will not be published. Required fields are marked *

This site uses Akismet to reduce spam. Learn how your comment data is processed.