Genesis – Nursery Cryme (Reissue)




Artist: Genesis
Year: 1971/1987
Genre: Rock
Notes: Discogs
Add. Notes: Reissue
Cover incl.: Yes
Encoder: FLAC
Bitrate: ~800 kBit/s (44.1 kHz/16 Bit/s)
Log & Cue incl.: Yes
Size: 232,19 MB
Password: “slam” (without ” “)


All Downloads/Hosters are compatible

Download 1
Turbobit.net
KatFile.com
Rapidgator.net
Usersdrive.com
Download 2
Turbobit.net
KatFile.com
Rapidgator.net
Usersdrive.com

Tracklist:

1 - The Musical Box - 10:24
2 - For Absent Friends - 1:43
3 - The Return Of The Giant Hogweed - 8:09
4 - Seven Stones - 5:09
5 - Harold The Barrel - 3:00
6 - Harlequin - 2:53
7 - The Fountain Of Salmacis - 7:54

EAC-Log, CUE-Sheed & NFO:

Click to open spoiler
Exact Audio Copy V1.0 beta 3 from 29. August 2011

Отчёт EAC об извлечении, выполненном 21. ноября 2014, 19:50

Genesis / Nursery Cryme

Дисковод: SONY CD-RW CRX230ED Adapter: 0 ID: 1

Режим чтения : Достоверность
Использование точного потока : Да
Отключение кэша аудио : Да
Использование указателей C2 : Нет

Коррекция смещения при чтении : 6
Способность читать области Lead-in и Lead-out : Нет
Заполнение пропущенных сэмплов тишиной : Да
Удаление блоков с тишиной в начале и конце : Нет
При вычислениях CRC использовались нулевые сэмплы : Да
Интерфейс : Встроенный Win32-интерфейс для Win NT/2000

Выходной формат : Внутренние WAV-операции
Формат сэмплов : 44.100 Гц; 16 бит; стерео

TOC извлечённого CD

Трек | Старт | Длительность | Начальный сектор | Конечный сектор
———————————————————————
1 | 0:00.32 | 10:29.00 | 32 | 47206
2 | 10:29.32 | 1:47.00 | 47207 | 55231
3 | 12:16.32 | 8:12.38 | 55232 | 92169
4 | 20:28.70 | 5:11.52 | 92170 | 115546
5 | 25:40.47 | 3:01.00 | 115547 | 129121
6 | 28:41.47 | 2:56.60 | 129122 | 142381
7 | 31:38.32 | 7:54.53 | 142382 | 177984

Характеристики диапазона извлечения и сообщения об ошибках

Выбранный диапазон

Имя файла F:\MusicCD\Genesis – Nursery Cryme\Genesis – Nursery Cryme.wav

Пиковый уровень 100.0 %
Скорость извлечения 6.9 X
Качество диапазона 99.9 %
CRC теста BE835859
CRC копии BE835859
Копирование… OK

Ошибок не произошло

AccurateRip: сводка

Трек 1 : извлечено точно (доверие 5) [8819D25B] (AR v2)
Трек 2 : извлечено точно (доверие 6) [B0181E43] (AR v2)
Трек 3 : извлечено точно (доверие 6) [CDCEA151] (AR v2)
Трек 4 : извлечено точно (доверие 6) [EF386508] (AR v2)
Трек 5 : извлечено точно (доверие 5) [7BDAA0B8] (AR v2)
Трек 6 : извлечено точно (доверие 6) [FD020900] (AR v2)
Трек 7 : извлечено точно (доверие 6) [C8C3E57D] (AR v2)

Все треки извлечены точно

Конец отчёта

==== Контрольная сумма отчёта 469A838B2E0D3771759E93612F8F13D617FC239674FD09664FC0CC9B78E165EB ====

REM GENRE “Progressive Rock”
REM DATE 1971
REM DISCID 47094507
REM COMMENT “ExactAudioCopy v1.0b3”
PERFORMER “Genesis”
TITLE “Nursery Cryme”
FILE “Genesis – Nursery Cryme.flac” WAVE
TRACK 01 AUDIO
TITLE “The Musical Box”
PERFORMER “Genesis”
INDEX 00 00:00:00
INDEX 01 00:00:32
TRACK 02 AUDIO
TITLE “For Absent Friends”
PERFORMER “Genesis”
INDEX 00 10:26:42
INDEX 01 10:29:32
TRACK 03 AUDIO
TITLE “The Return Of The Giant Hogweed”
PERFORMER “Genesis”
INDEX 00 12:13:12
INDEX 01 12:16:32
TRACK 04 AUDIO
TITLE “Seven Stones”
PERFORMER “Genesis”
INDEX 00 20:25:67
INDEX 01 20:28:70
TRACK 05 AUDIO
TITLE “Harold The Barrel”
PERFORMER “Genesis”
INDEX 00 25:38:02
INDEX 01 25:40:47
TRACK 06 AUDIO
TITLE “Harlequin”
PERFORMER “Genesis”
INDEX 00 28:39:52
INDEX 01 28:41:47
TRACK 07 AUDIO
TITLE “The Fountain Of Salmacis”
PERFORMER “Genesis”
INDEX 00 31:34:57
INDEX 01 31:38:32


Leave a Reply

Your email address will not be published. Required fields are marked *

This site uses Akismet to reduce spam. Learn how your comment data is processed.