Genesis – Land Of Confusion (Japanese Edition)




Artist: Genesis
Year: 1986
Genre: Rock
Notes: Discogs
Add. Notes: Japanese Edition
Encoder: FLAC
Bitrate: ~800 kBit/s (44.1 kHz/16 Bit/s)
Size: 199 MB
Password: “slam” (without ” “)


http://www.share-online.biz/dl/NLPHJMQPR7K
https://rapidgator.net/file/1bd4b768fae0cc85dcbd56322457e3b2
https://ayefiles.com/9m2i1kucm2fa/G1986-LanOfCon-JapEd.rar.html


Onlinestatus: Turbobit.net Rapidgator.net AyeFiles.com

Tracklist:

1 - Land Of Confusion - 4:43
2 - Land Of Confusion (Extended 
Version) - 6:55
3 - Feeding The Fire - 5:54
4 - Do The Neurotic - 7:00

EAC-Log, CUE-Sheed & NFO:

Click to open spoiler
Exact Audio Copy V0.99 prebeta 5 from 4. May 2009

EAC extraction logfile from 6. February 2012, 19:36

Genesis / Land Of Confusion (Single CD).20VD-1073.Japan

Used drive : PLEXTOR CD-R PREMIUM2 Adapter: 0 ID: 1

Read mode : Secure
Utilize accurate stream : Yes
Defeat audio cache : Yes
Make use of C2 pointers : No

Read offset correction : 30
Overread into Lead-In and Lead-Out : No
Fill up missing offset samples with silence : Yes
Delete leading and trailing silent blocks : No
Null samples used in CRC calculations : Yes
Used interface : Installed external ASPI interface

Used output format : User Defined Encoder
Selected bitrate : 768 kBit/s
Quality : High
Add ID3 tag : No
Command line compressor : C:\Program Files\Exact Audio Copy\FLAC\FLAC.EXE
Additional command line options : -8 -V %s

TOC of the extracted CD

Track | Start | Length | Start sector | End sector
———————————————————
1 | 0:00.00 | 4:45.17 | 0 | 21391
2 | 4:45.17 | 6:57.55 | 21392 | 52721
3 | 11:42.72 | 5:52.50 | 52722 | 79171
4 | 17:35.47 | 7:04.08 | 79172 | 110979

Range status and errors

Selected range

Filename H:\Temp\Genesis\Land Of Confusion.1986.20VD-1073.Toshiba-EMI.Japan\Genesis – Land Of Confusion (Single CD).20VD-1073.Japan.wav

Peak level 100.0 %
Range quality 100.0 %
Test CRC 22C073B4
Copy CRC 22C073B4
Copy OK

No errors occurred

AccurateRip summary

Track 1 cannot be verified as accurate (confidence 2) [938A64AF], AccurateRip returned [72BB52B2]
Track 2 cannot be verified as accurate (confidence 2) [B34AEA62], AccurateRip returned [D26CBABF]
Track 3 cannot be verified as accurate (confidence 2) [F5D47876], AccurateRip returned [73E75F6B]
Track 4 cannot be verified as accurate (confidence 2) [51EFAE03], AccurateRip returned [711FB8B5]

No tracks could be verified as accurate
You may have a different pressing from the one(s) in the database

End of status report

REM GENRE “Progressive Rock”
REM DATE 1986
REM DISCID 2B05C704
REM COMMENT “ExactAudioCopy v0.99pb5”
PERFORMER “Genesis”
TITLE “Land Of Confusion (Single CD).20VD-1073.Japan”
FILE “Genesis – Land Of Confusion (Single CD).20VD-1073.Japan.flac” WAVE
TRACK 01 AUDIO
TITLE “Land Of Confusion”
PERFORMER “Genesis”
FLAGS PRE
INDEX 01 00:00:00
TRACK 02 AUDIO
TITLE “Land Of Confusion (Extended Version)”
PERFORMER “Genesis”
FLAGS PRE
INDEX 00 04:45:15
INDEX 01 04:45:17
TRACK 03 AUDIO
TITLE “Feeding The Fire”
PERFORMER “Genesis”
FLAGS PRE
INDEX 00 11:42:70
INDEX 01 11:42:72
TRACK 04 AUDIO
TITLE “Do The Neurotic”
PERFORMER “Genesis”
FLAGS PRE
INDEX 00 17:35:45
INDEX 01 17:35:47

Leave a Reply

Your email address will not be published. Required fields are marked *

Enter the text from the image below
 

This site uses Akismet to reduce spam. Learn how your comment data is processed.