Genesis – Jesus He Knows Me




Artist: Genesis
Year: 1992
Genre: Rock
Notes: Discogs
Add. Notes:
Cover incl.: Yes
Encoder: FLAC
Bitrate: ~800 kBit/s (44.1 kHz/16 Bit/s)
Log & Cue incl.: Yes
Size: 115,41 MB
Password: “slam” (without ” “)


All Downloads/Hosters are compatible

Download 1
NitroFlare.com
KatFile.com
Turbobit.net
Rapidgator.net
UploadRar.com
Download 2
NitroFlare.com
KatFile.com
Turbobit.net
Rapidgator.net
UploadRar.com

Tracklist:

1 - Jesus He Knows Me (Single Mix) - 4:18
2 - Hearts On Fire - 5:15
3 - I Can't Dance (The Other Mix) - 6:00

EAC-Log, CUE-Sheed & NFO:

Click to open spoiler
Exact Audio Copy V1.0 beta 3 from 29. August 2011

EAC extraction logfile from 16. May 2012, 14:34

Genesis / Jesus He Knows Me (665 486)

Used drive : HL-DT-STDVDRAM GE20NU11 Adapter: 0 ID: 1

Read mode : Secure
Utilize accurate stream : Yes
Defeat audio cache : Yes
Make use of C2 pointers : No

Read offset correction : 667
Overread into Lead-In and Lead-Out : No
Fill up missing offset samples with silence : Yes
Delete leading and trailing silent blocks : No
Null samples used in CRC calculations : Yes
Used interface : Native Win32 interface for Win NT & 2000

Used output format : User Defined Encoder
Selected bitrate : 896 kBit/s
Quality : High
Add ID3 tag : No
Command line compressor : C:\Program Files\EAC 3\Exact Audio Copy\Flac\flac.exe
Additional command line options : -V -8 %source%

TOC of the extracted CD

Track | Start | Length | Start sector | End sector
———————————————————
1 | 0:00.32 | 4:18.23 | 32 | 19404
2 | 4:18.55 | 5:15.45 | 19405 | 43074
3 | 9:34.25 | 6:00.17 | 43075 | 70091

Range status and errors

Selected range

Filename C:\Olaf der Weisse\1992 – Jesus He Knows Me (665 486)\Genesis – Jesus He Knows Me (665 486).wav

Peak level 97.3 %
Extraction speed 1.3 X
Range quality 100.0 %
Test CRC 710DD4E0
Copy CRC 710DD4E0
Copy OK

No errors occurred

AccurateRip summary

Track 1 accurately ripped (confidence 16) [8ED19644] (AR v1)
Track 2 accurately ripped (confidence 16) [CC2F6F4D] (AR v1)
Track 3 accurately ripped (confidence 14) [4EAFFC21] (AR v1)

All tracks accurately ripped

End of status report

==== Log checksum AE843A7D0094B0E7CA22CE92931F0AEADC98EA593AC655CB1938158A23F27657 ====

REM GENRE “Progressive Rock”
REM DATE 1991
REM DISCID 1C03A603
REM COMMENT “ExactAudioCopy v1.0b3”
PERFORMER “Genesis”
TITLE “Jesus He Knows Me (665 486)”
FILE “Genesis – Jesus He Knows Me (665 486).flac” WAVE
TRACK 01 AUDIO
TITLE “Jesus he knows me (Single mix)”
PERFORMER “Genesis”
INDEX 00 00:00:00
INDEX 01 00:00:32
TRACK 02 AUDIO
TITLE “Give it up”
PERFORMER “Genesis”
INDEX 00 04:18:10
INDEX 01 04:18:55
TRACK 03 AUDIO
TITLE “I can’t dance (The Other mix)”
PERFORMER “Genesis”
INDEX 00 09:34:20
INDEX 01 09:34:25


Leave a Reply

Your email address will not be published. Required fields are marked *

This site uses Akismet to reduce spam. Learn how your comment data is processed.