Genesis – Invisible Touch (Reissue)




No Cover available

Artist: Genesis
Year: 1986/1997
Genre: Rock
Notes: Discogs
Add. Notes: Reissue
Watch Songs on: YouTube
Cover incl.: Yes
Encoder: FLAC
Bitrate: ~800 kBit/s (44.1 kHz/16 Bit/s)
Log & Cue incl.: Yes/Yes
Size: 329,4 MB
Password: “slam” (without ” “)


All Downloads/Hosters are compatible

Download 1
KatFile.com
Turbobit.net
FileFactory.com
Rapidgator.net
Download 2
KatFile.com
Turbobit.net
FileFactory.com
Rapidgator.net

Tracklist:

1 - Invisible Touch - 3:29
2 - Tonight, Tonight, Tonight - 8:53
3 - Land Of Confusion - 4:46
4 - In Too Deep - 5:02
5 - Anything She Does - 4:09
6 - Domino - 10:45
6.a - Part One - In The Glow Of The Night - 
6.b - Part Two - The Last Domino - 
7 - Throwing It All Away - 3:51
8 - The Brazilian - 4:50

EAC-Log, CUE-Sheed & NFO:

Click to open spoiler
Exact Audio Copy V1.0 beta 3 from 29. August 2011

EAC extraction logfile from 28. August 2015, 17:54

Genesis / Invisible Touch

Used drive : PLEXTOR DVDR PX-L890SA Adapter: 3 ID: 1

Read mode : Secure
Utilize accurate stream : Yes
Defeat audio cache : Yes
Make use of C2 pointers : No

Read offset correction : 6
Overread into Lead-In and Lead-Out : No
Fill up missing offset samples with silence : Yes
Delete leading and trailing silent blocks : No
Null samples used in CRC calculations : Yes
Used interface : Native Win32 interface for Win NT & 2000

Used output format : User Defined Encoder
Selected bitrate : 768 kBit/s
Quality : High
Add ID3 tag : No
Command line compressor : C:\Program Files (x86)\Exact Audio Copy\Flac\flac.exe
Additional command line options : -V -8 -T “Date=%year%” -T “Genre=%genre%” %source%

TOC of the extracted CD

Track | Start | Length | Start sector | End sector
———————————————————
1 | 0:00.00 | 3:29.17 | 0 | 15691
2 | 3:29.17 | 8:53.45 | 15692 | 55711
3 | 12:22.62 | 4:46.25 | 55712 | 77186
4 | 17:09.12 | 5:02.65 | 77187 | 99901
5 | 22:12.02 | 4:09.03 | 99902 | 118579
6 | 26:21.05 | 10:45.00 | 118580 | 166954
7 | 37:06.05 | 3:51.22 | 166955 | 184301
8 | 40:57.27 | 4:50.48 | 184302 | 206099

Range status and errors

Selected range

Filename H:\MUSIC\Genesis\1986. Genesis – Invisible Touch (Charisma 0777 7 86360 2 1, Holland)\Genesis – Invisible Touch.wav

Peak level 100.0 %
Extraction speed 8.1 X
Range quality 99.9 %
Test CRC 30DA52F3
Copy CRC 30DA52F3
Copy OK

No errors occurred

AccurateRip summary

Track 1 accurately ripped (confidence 72) [7DDA8628] (AR v2)
Track 2 accurately ripped (confidence 71) [CED56400] (AR v2)
Track 3 accurately ripped (confidence 70) [19775C8B] (AR v2)
Track 4 accurately ripped (confidence 71) [83750FC7] (AR v2)
Track 5 accurately ripped (confidence 72) [7D11E011] (AR v2)
Track 6 accurately ripped (confidence 71) [B6498C17] (AR v2)
Track 7 accurately ripped (confidence 70) [2E24527E] (AR v2)
Track 8 accurately ripped (confidence 69) [B0A64655] (AR v2)

All tracks accurately ripped

End of status report

==== Log checksum 9BE0902469476FD48210D502051DD682AB65D1734B2425E8588AC5981738BEF4 ====

REM GENRE “Progressive Rock”
REM DATE 1986
REM DISCID 580ABC08
REM COMMENT “ExactAudioCopy v1.0b3”
PERFORMER “Genesis”
TITLE “Invisible Touch ”
FILE “Genesis – Invisible Touch.flac” WAVE
TRACK 01 AUDIO
TITLE “Invisible Touch”
PERFORMER “Genesis”
INDEX 01 00:00:00
TRACK 02 AUDIO
TITLE “Tonight, Tonight, Tonight”
PERFORMER “Genesis”
INDEX 00 03:28:25
INDEX 01 03:29:17
TRACK 03 AUDIO
TITLE “Land Of Confusion”
PERFORMER “Genesis”
INDEX 00 12:21:00
INDEX 01 12:22:62
TRACK 04 AUDIO
TITLE “In Too Deep”
PERFORMER “Genesis”
INDEX 00 17:08:37
INDEX 01 17:09:12
TRACK 05 AUDIO
TITLE “Anything She Does”
PERFORMER “Genesis”
INDEX 00 22:08:25
INDEX 01 22:12:02
TRACK 06 AUDIO
TITLE “Domino {Part 1: In The Glow Of The Night – Part 2: The Last Domino}”
PERFORMER “Genesis”
INDEX 00 26:19:62
INDEX 01 26:21:05
INDEX 02 30:48:42
TRACK 07 AUDIO
TITLE “Throwing It All Away”
PERFORMER “Genesis”
INDEX 00 37:05:00
INDEX 01 37:06:05
TRACK 08 AUDIO
TITLE “The Brazilian”
PERFORMER “Genesis”
INDEX 00 40:56:25
INDEX 01 40:57:27


Leave a Reply

Your email address will not be published. Required fields are marked *

This site uses Akismet to reduce spam. Learn how your comment data is processed.