Genesis – Hold On My Heart




Artist: Genesis
Year: 1992
Genre: Rock
Notes: Discogs
Add. Notes:
Encoder: FLAC
Bitrate: ~800 kBit/s (44.1 kHz/16 Bit/s)
Size: 198 MB
Password: “slam” (without ” “)


http://www.share-online.biz/dl/QW788JQP2MY4
https://rapidgator.net/file/9ceb84cbe9637eeb346875413a8a1cb4
https://ayefiles.com/pbg5fp0ypqo3/G1992-HolOnMyHea665-335.rar.html

Onlinestatus: Turbobit.net Rapidgator.net AyeFiles.com

Tracklist:

1 - Hold On My Heart - 4:38
2 - Way Of The World - 5:37
3 - Home By The Sea (Live) - 12:18
4 - Your Own Special Way (Live) - 
6:58

EAC-Log, CUE-Sheed & NFO:

Click to open spoiler
Exact Audio Copy V1.0 beta 3 from 29. August 2011

EAC extraction logfile from 16. May 2012, 15:19

Genesis / Hold On My Heart (665 335)

Used drive : HL-DT-STDVDRAM GE20NU11 Adapter: 0 ID: 1

Read mode : Secure
Utilize accurate stream : Yes
Defeat audio cache : Yes
Make use of C2 pointers : No

Read offset correction : 667
Overread into Lead-In and Lead-Out : No
Fill up missing offset samples with silence : Yes
Delete leading and trailing silent blocks : No
Null samples used in CRC calculations : Yes
Used interface : Native Win32 interface for Win NT & 2000

Used output format : User Defined Encoder
Selected bitrate : 896 kBit/s
Quality : High
Add ID3 tag : No
Command line compressor : C:\Program Files\EAC 3\Exact Audio Copy\Flac\flac.exe
Additional command line options : -V -8 %source%

TOC of the extracted CD

Track | Start | Length | Start sector | End sector
———————————————————
1 | 0:00.00 | 4:38.62 | 0 | 20911
2 | 4:38.62 | 5:37.70 | 20912 | 46256
3 | 10:16.57 | 12:18.00 | 46257 | 101606
4 | 22:34.57 | 6:58.10 | 101607 | 132966

Range status and errors

Selected range

Filename C:\Olaf der Weisse\1992 – Hold On My Heart (665 335)\Genesis – Hold On My Heart (665 335).wav

Peak level 100.0 %
Extraction speed 1.4 X
Range quality 99.9 %
Test CRC 7CBE1B48
Copy CRC 7CBE1B48
Copy OK

No errors occurred

AccurateRip summary

Track 1 accurately ripped (confidence 9) [DB1EEB44] (AR v1)
Track 2 accurately ripped (confidence 9) [3C6A548F] (AR v1)
Track 3 accurately ripped (confidence 9) [C2D12313] (AR v1)
Track 4 accurately ripped (confidence 9) [117F4AD2] (AR v1)

All tracks accurately ripped

End of status report

==== Log checksum B3BD1F6A646C6123943605A3B5CE79876F897230EEABD5F13F3B02655C6FBDC6 ====

REM GENRE “Progressive Rock”
REM DATE 1992
REM DISCID 2A06EC04
REM COMMENT “ExactAudioCopy v1.0b3”
PERFORMER “Genesis”
TITLE “Hold On My Heart (665 335)”
FILE “Genesis – Hold On My Heart (665 335).flac” WAVE
TRACK 01 AUDIO
TITLE “Hold On My Heart”
PERFORMER “Genesis”
INDEX 01 00:00:00
TRACK 02 AUDIO
TITLE “Way Of The World”
PERFORMER “Genesis”
INDEX 00 04:38:60
INDEX 01 04:38:62
TRACK 03 AUDIO
TITLE “Home By The Sea (Live)”
PERFORMER “Genesis”
INDEX 00 10:15:70
INDEX 01 10:16:57
TRACK 04 AUDIO
TITLE “Your Own Special Way (Live) (Featuring The Invisible String Section)”
PERFORMER “Genesis”
INDEX 00 22:34:55
INDEX 01 22:34:57

Leave a Reply

Your email address will not be published. Required fields are marked *

This site uses Akismet to reduce spam. Learn how your comment data is processed.