Genesis – Genesis (Japanese Edition)




Artist: Genesis
Year: 1985
Genre: Rock
Notes: Discogs
Add. Notes: Japanese Edition
Encoder: FLAC
Bitrate: ~800 kBit/s (44.1 kHz/16 Bit/s)
Size: 355 MB
Password: “slam” (without ” “)


http://www.share-online.biz/dl/YMSHJMQPJP
https://rapidgator.net/file/9eee7b9f9bf646735a1f91fe4aecca86
https://ayefiles.com/u2zcbc4lkg5k/G1983-Gen-JapEd.rar.html

Onlinestatus: Turbobit.net Rapidgator.net AyeFiles.com

Tracklist:

1  Mama  
2  Thats All  
3  Home By The Sea  
4  Second Home By The Sea  
5  Illegal Alien  
6  Takin It All Too Hard  
7  Just A Job To Do  
8  Silver Rainbow  
9  Its Gonna Get Better

EAC-Log, CUE-Sheed & NFO:

Click to open spoiler
Exact Audio Copy V0.99 prebeta 5 from 4. May 2009

EAC extraction logfile from 29. January 2012, 16:19

Genesis / Genesis.32PD-17.Japan

Used drive : PLEXTOR CD-R PREMIUM2 Adapter: 0 ID: 1

Read mode : Secure
Utilize accurate stream : Yes
Defeat audio cache : Yes
Make use of C2 pointers : No

Read offset correction : 30
Overread into Lead-In and Lead-Out : No
Fill up missing offset samples with silence : Yes
Delete leading and trailing silent blocks : No
Null samples used in CRC calculations : Yes
Used interface : Installed external ASPI interface

Used output format : User Defined Encoder
Selected bitrate : 768 kBit/s
Quality : High
Add ID3 tag : No
Command line compressor : C:\Program Files\Exact Audio Copy\FLAC\FLAC.EXE
Additional command line options : -8 -V %s

TOC of the extracted CD

Track | Start | Length | Start sector | End sector
———————————————————
1 | 0:00.33 | 6:48.42 | 33 | 30674
2 | 6:49.00 | 4:26.05 | 30675 | 50629
3 | 11:15.05 | 5:07.58 | 50630 | 73712
4 | 16:22.63 | 6:08.47 | 73713 | 101359
5 | 22:31.35 | 5:15.08 | 101360 | 124992
6 | 27:46.43 | 3:58.15 | 124993 | 142857
7 | 31:44.58 | 4:47.25 | 142858 | 164407
8 | 36:32.08 | 4:29.42 | 164408 | 184624
9 | 41:01.50 | 5:00.50 | 184625 | 207174

Range status and errors

Selected range

Filename H:\Temp\Genesis\Genesis.1983.Vertigo.32PD-17.Japan\Genesis – Genesis.32PD-17.Japan.wav

Peak level 100.0 %
Range quality 100.0 %
Test CRC B3FBCC88
Copy CRC B3FBCC88
Copy OK

No errors occurred

AccurateRip summary

Track 1 accurately ripped (confidence 162) [16F45D49]
Track 2 accurately ripped (confidence 164) [7834FC89]
Track 3 accurately ripped (confidence 162) [B58E8E82]
Track 4 accurately ripped (confidence 163) [476E3E1B]
Track 5 accurately ripped (confidence 161) [F83F26B2]
Track 6 accurately ripped (confidence 160) [6D7EA31B]
Track 7 accurately ripped (confidence 159) [097C7D60]
Track 8 accurately ripped (confidence 160) [57111B16]
Track 9 accurately ripped (confidence 156) [D72F6D68]

All tracks accurately ripped

End of status report

REM GENRE “Progressive Rock”
REM DATE 1983
REM DISCID 810ACA09
REM COMMENT “ExactAudioCopy v0.99pb5”
PERFORMER “Genesis”
TITLE “Genesis.32PD-17.Japan”
FILE “Genesis – Genesis.32PD-17.Japan.flac” WAVE
TRACK 01 AUDIO
TITLE “Mama”
PERFORMER “Genesis”
FLAGS PRE
INDEX 00 00:00:00
INDEX 01 00:00:33
TRACK 02 AUDIO
TITLE “That’s All”
PERFORMER “Genesis”
FLAGS PRE
INDEX 00 06:47:65
INDEX 01 06:49:00
TRACK 03 AUDIO
TITLE “Home By The Sea”
PERFORMER “Genesis”
FLAGS PRE
INDEX 00 11:13:18
INDEX 01 11:15:05
TRACK 04 AUDIO
TITLE “Second Home By The Sea”
PERFORMER “Genesis”
FLAGS PRE
INDEX 01 16:22:63
TRACK 05 AUDIO
TITLE “Illegal Alien”
PERFORMER “Genesis”
FLAGS PRE
INDEX 00 22:30:68
INDEX 01 22:31:35
TRACK 06 AUDIO
TITLE “Takin’ It All Too Hard”
PERFORMER “Genesis”
FLAGS PRE
INDEX 00 27:45:03
INDEX 01 27:46:43
TRACK 07 AUDIO
TITLE “Just A Job To Do”
PERFORMER “Genesis”
FLAGS PRE
INDEX 00 31:43:30
INDEX 01 31:44:58
TRACK 08 AUDIO
TITLE “Silver Rainbow”
PERFORMER “Genesis”
FLAGS PRE
INDEX 00 36:31:18
INDEX 01 36:32:08
TRACK 09 AUDIO
TITLE “It’s Gonna Get Better”
PERFORMER “Genesis”
FLAGS PRE
INDEX 00 41:00:60
INDEX 01 41:01:50

Leave a Reply

Your email address will not be published. Required fields are marked *

Enter the text from the image below
 

This site uses Akismet to reduce spam. Learn how your comment data is processed.